找回密码

蓝光电影网

查看: 30|回复: 0

[剧情] 赤脚小子[国语配音/中文字幕].The.Bare-Footed.Kid.1993.1080p.BluRay.DTS.2Audio.x265-10bit-BATHD 6.71GB

[复制链接]
蓝光币
7
发表于 2022-7-27 02:16:48 | 显示全部楼层 |阅读模式


◎标  题 光脚小子
◎译  名 江湖传闻 / 义胆小侠 / The Bare-Footed Kid
◎年  代 1993
◎产  地 中国香港
◎类  别 剧情 / 行动 / 武侠 / 古装
◎语  言 粤语
◎上映日期 1993-04-03
◎IMDb评分 6.4/10 (796人评价)
◎IMDb链接 https://www.imdb.com/title/tt0106552/
◎豆瓣评分 7.0/10 (6360人评价)
◎豆瓣链接 https://movie.douban.com/subject/1474336/
◎片  长 83分钟
◎导  演 杜琪峰 Johnnie To
◎编  剧 游乃海 Nai-Hoi Yau
◎演  员 郭富城 Aaron Kwok
       张曼玉 Maggie Cheung
       狄龙 Lung Ti
       吴倩莲 Chien-lien Wu
       张兆辉 Siu-Fai Cheung
       秦沛 Paul Chun
       曾江 Kenneth Tsang
       黄一飞 Yut Fei Wong
       张荣祥 Cheung Wing-Cheung
       江苗定 Miu Ting Kong
       麦伟章 Wai Cheung Mak
       周树基 Kent Chow Shu-Kei
       谭镇渡 Tony Tam Chun-To
       向叠 Heung Dip
       陈文妤 Man-Hiu Chan
       王章宝 Cheung-Bo Wong
       林华勋 Jameson Wa-Fan Lam
       方逸华 Mona Fong
       胡伟立 Wai Lap Wu
       黄永久 Wing-Hung Wong
       黎沃 Lai Yu
       刘家良 Kar-Leung Lau
◎标  签 杜琪峰 / 香港 / 郭富城 / 张曼玉 / 行动 / 香港电影 / 狄龙 / 1993
◎简  介
  清代某年。光脚小子关丰曜(郭富城 饰)单身入省会闯荡,他一无一切,可以依靠的只要自己一身功夫和染坊“四时织”内的父亲故人段青云(狄龙 饰)。                                    
                                省会内大势颇不安好,天龙坊仆人喀和布(曾江 饰)凭旗人身份独霸一方,用以提拔家丁打手的擂台熙攘不休。新任县令袁天助(张兆辉 饰)与教师(秦沛 饰)欲铲除喀和布,但立根不稳无计可施。关丰曜于路巧遇四时织女仆人白筱君(张曼玉 饰)和袁师之女小莲(吴倩莲 饰),并终与段青云相见,本来段青云为躲避追捕,更名换姓存身染坊,并与白筱君发生了情义。                                    
                                喀和布为吞并四时织奸计频出,关丰曜忍无可忍打上门去,反被喀和布收服操纵。袁天助在同喀和布的较劲中频频受挫,竟威胁段青云与喀和布拼斗,关丰曜仓促赶去救济,但为时已晚……
  1. ##### MediaInfo ######
  2. General
  3. Unique ID                                : 65886937586114894650491842440831901167 (0x31915CD39F6D9F04246C308B8BE71DEF)
  4. Complete name                            : The.Bare-Footed.Kid.1993.1080p.BluRay.DTS.2Audio.x265-10bit-BATHD.mkv
  5. Format                                   : Matroska
  6. Format version                           : Version 4
  7. File size                                : 6.71 GiB
  8. Duration                                 : 1 h 23 min
  9. Overall bit rate                         : 11.5 Mb/s
  10. Movie name                               : The Bare-Footed Kid 1993 1080p BluRay DTS 2Audio x265-10bit-HDS
  11. Encoded date                             : UTC 2022-07-25 04:37:07
  12. Writing application                      : mkvmerge v69.0.0 ('Day And Age') 64-bit
  13. Writing library                          : libebml v1.4.2 + libmatroska v1.6.4
  14. Video
  15. ID                                       : 1
  16. Format                                   : HEVC
  17. Format/Info                              : High Efficiency Video Coding
  18. Format profile                           : Main [email protected]@High
  19. Codec ID                                 : V_MPEGH/ISO/HEVC
  20. Duration                                 : 1 h 23 min
  21. Bit rate                                 : 8 429 kb/s
  22. Width                                    : 1 920 pixels
  23. Height                                   : 1 028 pixels
  24. Display aspect ratio                     : 1.85:1
  25. Frame rate mode                          : Constant
  26. Frame rate                               : 25.000 FPS
  27. Color space                              : YUV
  28. Chroma subsampling                       : 4:2:0
  29. Bit depth                                : 10 bits
  30. Bits/(Pixel*Frame)                       : 0.171
  31. Stream size                              : 4.91 GiB (73%)
  32. Title                                    : @HDSky
  33. Writing library                          : x265 - H.265/HEVC codec
  34. Default                                  : Yes
  35. Forced                                   : No
  36. Audio #1
  37. ID                                       : 2
  38. Format                                   : DTS
  39. Format/Info                              : Digital Theater Systems
  40. Codec ID                                 : A_DTS
  41. Duration                                 : 1 h 23 min
  42. Bit rate mode                            : Constant
  43. Bit rate                                 : 1 509 kb/s
  44. Channel(s)                               : 2 channels
  45. Channel layout                           : L R
  46. Sampling rate                            : 48.0 kHz
  47. Frame rate                               : 93.750 FPS (512 SPF)
  48. Bit depth                                : 24 bits
  49. Compression mode                         : Lossy
  50. Stream size                              : 899 MiB (13%)
  51. Title                                    : Mandarin
  52. Language                                 : Chinese
  53. Default                                  : Yes
  54. Forced                                   : No
  55. Audio #2
  56. ID                                       : 3
  57. Format                                   : DTS
  58. Format/Info                              : Digital Theater Systems
  59. Codec ID                                 : A_DTS
  60. Duration                                 : 1 h 23 min
  61. Bit rate mode                            : Constant
  62. Bit rate                                 : 1 509 kb/s
  63. Channel(s)                               : 2 channels
  64. Channel layout                           : L R
  65. Sampling rate                            : 48.0 kHz
  66. Frame rate                               : 93.750 FPS (512 SPF)
  67. Bit depth                                : 24 bits
  68. Compression mode                         : Lossy
  69. Stream size                              : 899 MiB (13%)
  70. Title                                    : Mandarin
  71. Language                                 : Chinese
  72. Default                                  : Yes
  73. Forced                                   : No
  74. Text #1
  75. ID                                       : 4
  76. Format                                   : PGS
  77. Muxing mode                              : zlib
  78. Codec ID                                 : S_HDMV/PGS
  79. Codec ID/Info                            : Picture based subtitle format used on BDs/HD-DVDs
  80. Duration                                 : 1 h 22 min
  81. Bit rate                                 : 58.6 kb/s
  82. Count of elements                        : 3917
  83. Stream size                              : 34.6 MiB (1%)
  84. Title                                    : CHS
  85. Language                                 : Chinese
  86. Default                                  : Yes
  87. Forced                                   : No
  88. Text #2
  89. ID                                       : 5
  90. Format                                   : PGS
  91. Muxing mode                              : zlib
  92. Codec ID                                 : S_HDMV/PGS
  93. Codec ID/Info                            : Picture based subtitle format used on BDs/HD-DVDs
  94. Duration                                 : 1 h 22 min
  95. Bit rate                                 : 60.1 kb/s
  96. Count of elements                        : 3917
  97. Stream size                              : 35.5 MiB (1%)
  98. Title                                    : CHT
  99. Language                                 : Chinese
  100. Default                                  : Yes
  101. Forced                                   : No
  102. Menu
  103. 00:00:00.000                             : en:第 01 章
  104. 00:10:31.240                             : en:第 02 章
  105. 00:21:41.080                             : en:第 03 章
  106. 00:31:36.800                             : en:第 04 章
  107. 00:40:00.480                             : en:第 05 章
  108. 00:48:32.560                             : en:第 06 章
  109. 00:55:45.520                             : en:第 07 章
  110. 01:02:54.640                             : en:第 08 章
  111. 01:13:57.400                             : en:第 09 章
复制代码

















保举请利用qBittorrent,utorrent,transmission等标准BT软件下载!以获得最快速度。奉求保种!





回复

使用道具 举报

懒得打字嘛,点击右侧快捷回复 【右侧内容,后台自定义】
您需要登录后才可以回帖 登录 | 立即加入

本版积分规则

Archiver|小黑屋| 蓝光电影网 |网站地图

Copyright © 2021 Comsenz Inc. Powered by 蓝光电影网

蓝光电影网

本站内容由用户自主分享和转载自互联网,转载目的在于传递更多信息,并不代表本网赞同其观点和对其真实性负责。

如有侵权、违反国家法律政策行为,请联系我们,我们会第一时间及时清除和处理!

举报反馈邮箱:[email protected]

快速回复 返回顶部 返回列表