找回密码

蓝光电影网

查看: 38|回复: 0

[剧情] 侠盗联盟[国粤多音轨/简繁英字幕].The.Adventurers.2017.Bluray.1080p.x265.10bit.DTS.5.1.2Audio-MOMOHD 9.71GB

[复制链接]
蓝光币
7
发表于 2022-7-27 02:16:49 | 显示全部楼层 |阅读模式


◎标  题 侠盗同盟
◎译  名 The Adventurers
◎片  名 俠盜聯盟
◎年  代 2017
◎产  地 中国大陆 / 中国香港 / 捷克
◎类  别 行动 / 冒险
◎语  言 汉语普通话 / 英语 / 法语 / 俄语
◎上映日期 2017-08-11(中国大陆)
◎IMDb评分 5.6/10 (2957人评价)
◎IMDb链接 https://www.imdb.com/title/tt5866930/
◎豆瓣评分 5.2/10 (61664人评价)
◎豆瓣链接 https://movie.douban.com/subject/25858758/
◎片  长 108分钟
◎导  演 冯德伦 Stephen Fung
◎编  剧 冯德伦 Stephen Fung
       罗耀辉 Yiu Fai Lo
       哈智超 Zhichao Ha
       张志光 Chi-Kwong Cheung
       黄小庄 Xiaozhuang Huang
◎演  员 刘德华 Andy Lau
       舒淇 Qi Shu
       张静初 Jingchu Zhang
       杨祐宁 Yo Yang
       让·雷诺 Jean Reno
       曾志伟 Eric Tsang
       沙溢 Yi Sha
       游天翼 Tianyi You
       张益群 Yiqun Zhang
       丹尼尔·达顿·斯沃博达 Daniel Daden Svoboda
       埃里克达考斯塔 Eric Da Costa
       戴维·鲍尔斯 David Bowles
       陈惠中 Wai-Chung Chan
       林建岳 Peter Lam
◎标  签 行动 / 犯罪 / 香港 / 2017 / 冒险 / 中国 / 剧情 / 港台
◎简  介
  十七世纪西班牙皇室赠予给中国天子的礼物GAIA,现在虽然被分为森之瞳、灵之泉、命之翼三份,却仍然代价连城,使人垂涎。出狱未几的江洋大盗张丹(刘德华 饰)将方针锁定在这几件宝贝上,他找到资深黑客小宝(杨祐宁 饰)以及女贼叶红(舒淇 饰),成功混进戛纳拍卖会场, 在比武屡次的法国警探皮埃尔(让·雷诺 饰)鼻子底下偷走了命之翼,终极交到幕后老板金刚(曾志伟 饰)的手上。连上坐牢前偷到的森之瞳,只差最初的灵之泉即可将GAIA重新合在一路。                                    
                                而就在此时,皮埃尔找到当初遭到张丹变节的前女友Amber Li(张静初 饰),展开对大盗们新一轮的追捕……
  1. ##### MediaInfo ######
  2. General
  3. Unique ID                                : 76336580820911369101918813744452458301 (0x396DE403F73D2BA5440798A282E9D73D)
  4. Complete name                            : The.Adventurers.2017.Bluray.1080p.x265.10bit.DTS.5.1.2Audio-MOMOHD.mkv
  5. Format                                   : Matroska
  6. Format version                           : Version 4
  7. File size                                : 9.71 GiB
  8. Duration                                 : 1 h 47 min
  9. Overall bit rate                         : 13.0 Mb/s
  10. Encoded date                             : UTC 2019-04-12 11:24:50
  11. Writing application                      : mkvmerge v32.0.0 ('Astral Progressions') 64-bit
  12. Writing library                          : libebml v1.3.7 + libmatroska v1.5.0
  13. Video
  14. ID                                       : 1
  15. Format                                   : HEVC
  16. Format/Info                              : High Efficiency Video Coding
  17. Format profile                           : Main [email protected]@High
  18. Codec ID                                 : V_MPEGH/ISO/HEVC
  19. Duration                                 : 1 h 47 min
  20. Bit rate                                 : 9 938 kb/s
  21. Width                                    : 1 920 pixels
  22. Height                                   : 804 pixels
  23. Display aspect ratio                     : 2.40:1
  24. Frame rate mode                          : Constant
  25. Frame rate                               : 24.000 FPS
  26. Color space                              : YUV
  27. Chroma subsampling                       : 4:2:0
  28. Bit depth                                : 10 bits
  29. Bits/(Pixel*Frame)                       : 0.268
  30. Stream size                              : 7.43 GiB (77%)
  31. Title                                    : [email protected]
  32. Writing library                          : x265 2.0M+9-g457336f+14:[Windows][GCC 5.3.0][64 bit] Yuuki 10bit
  33. Encoding settings                        : wpp / ctu=32 / min-cu-size=8 / max-tu-size=32 / tu-intra-depth=1 / tu-inter-depth=1 / me=3 / subme=7 / merange=24 / rect / no-amp / max-merge=3 / temporal-mvp / no-early-skip / rskip / rdpenalty=2 / no-tskip / no-tskip-fast / no-strong-intra-smoothing / no-lossless / no-cu-lossless / no-constrained-intra / no-fast-intra / no-open-gop / no-temporal-layers / interlace=0 / keyint=480 / min-keyint=1 / NTM4NzU=uuDQuD2mJt9fsCf / scenecut=40 / rc-lookahead=50 / lookahead-slices=4 / bframes=6 / bframe-bias=0 / b-adapt=2 / ref=5 / limit-refs=3 / limit-modes / weightp / weightb / aq-mode=3 / qg-size=32 / aq-strength=0.60 / cbqpoffs=-2 / crqpoffs=-2 / rd=4 / psy-rd=0.90 / rdoq-level=2 / psy-rdoq=3.00 / no-rd-refine / signhide / deblock=-1:-1 / no-sao / no-sao-non-deblock / b-pyramid / no-cutree / no-intra-refresh / rc=crf / crf=17.5000 / qcomp=0.65 / qpmin=0 / qpmax=69 / qpstep=4 / vbv-maxrate=160000 / vbv-bufsize=160000 / crf-max=0.0 / ipratio=1.40 / pbratio=1.20
  34. Language                                 : Chinese
  35. Default                                  : Yes
  36. Forced                                   : No
  37. Audio #1
  38. ID                                       : 2
  39. Format                                   : DTS
  40. Format/Info                              : Digital Theater Systems
  41. Codec ID                                 : A_DTS
  42. Duration                                 : 1 h 47 min
  43. Bit rate mode                            : Constant
  44. Bit rate                                 : 1 510 kb/s
  45. Channel(s)                               : 6 channels
  46. Channel layout                           : C L R Ls Rs LFE
  47. Sampling rate                            : 48.0 kHz
  48. Frame rate                               : 93.750 FPS (512 SPF)
  49. Bit depth                                : 24 bits
  50. Compression mode                         : Lossy
  51. Stream size                              : 1.13 GiB (12%)
  52. Title                                    : 国语
  53. Language                                 : Chinese
  54. Default                                  : Yes
  55. Forced                                   : No
  56. Audio #2
  57. ID                                       : 3
  58. Format                                   : DTS
  59. Format/Info                              : Digital Theater Systems
  60. Codec ID                                 : A_DTS
  61. Duration                                 : 1 h 47 min
  62. Bit rate mode                            : Constant
  63. Bit rate                                 : 1 510 kb/s
  64. Channel(s)                               : 6 channels
  65. Channel layout                           : C L R Ls Rs LFE
  66. Sampling rate                            : 48.0 kHz
  67. Frame rate                               : 93.750 FPS (512 SPF)
  68. Bit depth                                : 24 bits
  69. Compression mode                         : Lossy
  70. Stream size                              : 1.13 GiB (12%)
  71. Title                                    : 粤语
  72. Language                                 : Chinese
  73. Default                                  : No
  74. Forced                                   : No
  75. Text #1
  76. ID                                       : 4
  77. Format                                   : PGS
  78. Muxing mode                              : zlib
  79. Codec ID                                 : S_HDMV/PGS
  80. Codec ID/Info                            : Picture based subtitle format used on BDs/HD-DVDs
  81. Duration                                 : 1 h 40 min
  82. Bit rate                                 : 22.4 kb/s
  83. Count of elements                        : 2123
  84. Stream size                              : 16.1 MiB (0%)
  85. Title                                    : 简中
  86. Language                                 : Chinese
  87. Default                                  : Yes
  88. Forced                                   : No
  89. Text #2
  90. ID                                       : 5
  91. Format                                   : PGS
  92. Muxing mode                              : zlib
  93. Codec ID                                 : S_HDMV/PGS
  94. Codec ID/Info                            : Picture based subtitle format used on BDs/HD-DVDs
  95. Duration                                 : 1 h 40 min
  96. Bit rate                                 : 22.8 kb/s
  97. Count of elements                        : 1896
  98. Stream size                              : 16.4 MiB (0%)
  99. Title                                    : 繁中
  100. Language                                 : Chinese
  101. Default                                  : No
  102. Forced                                   : No
  103. Text #3
  104. ID                                       : 6
  105. Format                                   : PGS
  106. Muxing mode                              : zlib
  107. Codec ID                                 : S_HDMV/PGS
  108. Codec ID/Info                            : Picture based subtitle format used on BDs/HD-DVDs
  109. Duration                                 : 1 h 40 min
  110. Bit rate                                 : 27.6 kb/s
  111. Count of elements                        : 1872
  112. Stream size                              : 19.8 MiB (0%)
  113. Title                                    : 英文
  114. Language                                 : English
  115. Default                                  : No
  116. Forced                                   : No
  117. Menu
  118. 00:00:00.000                             : :绗?01 绔?
  119. 00:08:04.083                             : :绗?02 绔?
  120. 00:19:07.917                             : :绗?03 绔?
  121. 00:26:16.417                             : :绗?04 绔?
  122. 00:34:50.875                             : :绗?05 绔?
  123. 00:44:29.792                             : :绗?06 绔?
  124. 00:55:30.500                             : :绗?07 绔?
  125. 01:01:28.042                             : :绗?08 绔?
  126. 01:11:13.083                             : :绗?09 绔?
  127. 01:19:45.667                             : :绗?10 绔?
  128. 01:29:51.417                             : :绗?11 绔?
  129. 01:39:49.250                             : :绗?12 绔?
复制代码

















保举请利用qBittorrent,utorrent,transmission等标准BT软件下载!以获得最快速度。奉求保种!





回复

使用道具 举报

懒得打字嘛,点击右侧快捷回复 【右侧内容,后台自定义】
您需要登录后才可以回帖 登录 | 立即加入

本版积分规则

Archiver|小黑屋| 蓝光电影网 |网站地图

Copyright © 2021 Comsenz Inc. Powered by 蓝光电影网

蓝光电影网

本站内容由用户自主分享和转载自互联网,转载目的在于传递更多信息,并不代表本网赞同其观点和对其真实性负责。

如有侵权、违反国家法律政策行为,请联系我们,我们会第一时间及时清除和处理!

举报反馈邮箱:[email protected]

快速回复 返回顶部 返回列表