找回密码

蓝光电影网

查看: 32|回复: 0

[剧情] 新上海滩[国粤语配音/中文字幕].Shanghai.Grand.1996.Bluray.1080p.x264.TrueHD.7.1.2Audio-MOMOHD 8.91GB

[复制链接]
蓝光币
7
发表于 2022-7-27 02:16:50 | 显示全部楼层 |阅读模式


◎标  题 新上海滩
◎译  名 Shanghai Grand
◎片  名 新上海灘
◎年  代 1996
◎产  地 中国香港
◎类  别 行动 / 惊悚 / 犯罪
◎语  言 粤语 / 汉语普通话 / 英语
◎上映日期 1996-07-13(中国香港)
◎IMDb评分 6.6/10 (771人评价)
◎IMDb链接 https://www.imdb.com/title/tt0117619/
◎豆瓣评分 7.7/10 (48902人评价)
◎豆瓣链接 https://movie.douban.com/subject/1293142/
◎片  长 96分钟
◎导  演 潘文杰 Man Kit Poon
◎编  剧 邹凯光 Matt Chow
       潘文杰 Man Kit Poon
       邵丽琼 Sandy Shaw
◎演  员 张国荣 Leslie Cheung
       刘德华 Andy Lau
       安好 Jing Ning
       李蕙敏 Amanda Lee
       吴兴国 Hsing-kuo Wu
       刘洵 Shun Lau
       黄佩霞 Almen Wong Pui-Ha
       李健仁 Kin-Yan Lee
       郑雨盛 Woo-sung Jung
       张济平 Jiping Zhang
       叶进 Chun Yip
       曹秋根 Qiugen Cao
◎标  签 张国荣 / 刘德华 / 香港 / 香港电影 / 黑帮 / 新上海滩 / 1996 / 剧情
◎简  介
    年轻军官许文强(张国荣)逃往路上被日本特务伏击堕海,漂泊到外滩岸上时身材不支晕倒,丁力(刘德华)途经欲将其救却遭其下认识的武力,两人一番打架后结为好友。丁力偶然救下上海富翁冯敬尧(吴兴国)的千金冯程程(安好)后,许下心愿要娶其为妻,但襄王有梦神女却心还有所属,冯程程只把他当好朋友,爱的正是某次旅途中在火车上结识的他的好兄弟许文强,而许文强也因她的勇敢善良机智对她发生了好感。                                                                      许文强再次遇上冯程程时,豪情没能控制,与丁力的友谊画上句号。而当许文强与冯程程谈婚论嫁时,许文强意外发现冯敬尧正是追杀他和同寅的幕后黑手,他的身份也被对方认出,炸药味顿时满盈房间。
  1. ##### MediaInfo ######
  2. General
  3. Unique ID                                : 253061621083358660008268553275357880985 (0xBE61E537C092CC9F73F3FD04C2996299)
  4. Complete name                            : Shanghai.Grand.1996.Bluray.1080p.x264.TrueHD.7.1.2Audio-MOMOHD.mkv
  5. Format                                   : Matroska
  6. Format version                           : Version 4
  7. File size                                : 8.90 GiB
  8. Duration                                 : 1 h 35 min
  9. Overall bit rate mode                    : Variable
  10. Overall bit rate                         : 13.3 Mb/s
  11. Encoded date                             : UTC 2019-06-26 02:10:04
  12. Writing application                      : mkvmerge v35.0.0 ('All The Love In The World') 64-bit
  13. Writing library                          : libebml v1.3.9 + libmatroska v1.5.2
  14. Video
  15. ID                                       : 1
  16. Format                                   : AVC
  17. Format/Info                              : Advanced Video Codec
  18. Format profile                           : [email protected]
  19. Format settings                          : CABAC / 4 Ref Frames
  20. Format settings, CABAC                   : Yes
  21. Format settings, Reference frames        : 4 frames
  22. Codec ID                                 : V_MPEG4/ISO/AVC
  23. Duration                                 : 1 h 35 min
  24. Bit rate                                 : 7 949 kb/s
  25. Width                                    : 1 920 pixels
  26. Height                                   : 1 080 pixels
  27. Display aspect ratio                     : 16:9
  28. Frame rate mode                          : Constant
  29. Frame rate                               : 24.000 FPS
  30. Color space                              : YUV
  31. Chroma subsampling                       : 4:2:0
  32. Bit depth                                : 8 bits
  33. Scan type                                : Progressive
  34. Bits/(Pixel*Frame)                       : 0.160
  35. Stream size                              : 5.32 GiB (60%)
  36. Title                                    : [email protected]
  37. Writing library                          : x264 core 148 r2692+46 0f71ed5 7mod [[email protected] X86_64]
  38. Encoding settings                        : cabac=1 / ref=4 / deblock=1:-3:-3 / analyse=0x3:0x113 / me=umh / subme=11 / psy=1 / fade_compensate=0.00 / psy_rd=1.00:0.00 / mixed_ref=1 / me_range=48 / chroma_me=1 / trellis=2 / 8x8dct=1 / cqm=0 / deadzone=11,6 / fast_pskip=0 / chroma_qp_offset=-2 / threads=24 / lookahead_threads=4 / sliced_threads=0 / nr=0 / decimate=0 / interlaced=0 / NTM4NzU= / bluray_compat=0 / constrained_intra=0 / fgo=0 / bframes=8 / b_pyramid=2 / b_adapt=2 / b_bias=0 / direct=3 / weightb=1 / open_gop=0 / weightp=2 / keyint=250 / keyint_min=24 / NTM4NzU=uuDQuD2mJt9fsCf / scenecut=40 / intra_refresh=0 / rc_lookahead=60 / rc=crf / mbtree=0 / crf=21.0000 / qcomp=0.60 / qpmin=0:0:0 / qpmax=32:32:32 / qpstep=4 / vbv_maxrate=40000 / vbv_bufsize=30000 / crf_max=0.0 / nal_hrd=none / filler=0 / NTM4NzU=LmsMAP37EqsCpk / ip_ratio=1.30 / pb_ratio=1.20 / aq=4:0.80 / aq-sensitivity=10.00 / aq-factor=1.00:1.00:1.00 / aq2=0 / aq3=0
  39. Language                                 : Chinese
  40. Default                                  : Yes
  41. Forced                                   : No
  42. Color range                              : Limited
  43. Color primaries                          : BT.709
  44. Transfer characteristics                 : BT.709
  45. Matrix coefficients                      : BT.709
  46. Audio #1
  47. ID                                       : 2
  48. Format                                   : MLP FBA
  49. Format/Info                              : Meridian Lossless Packing FBA
  50. Commercial name                          : Dolby TrueHD
  51. Codec ID                                 : A_TRUEHD
  52. Duration                                 : 1 h 35 min
  53. Bit rate mode                            : Variable
  54. Bit rate                                 : 4 627 kb/s
  55. Maximum bit rate                         : 6 357 kb/s
  56. Channel(s)                               : 8 channels
  57. Channel layout                           : L R C LFE Ls Rs Lb Rb
  58. Sampling rate                            : 48.0 kHz
  59. Frame rate                               : 1 200.000 FPS (40 SPF)
  60. Compression mode                         : Lossless
  61. Stream size                              : 3.09 GiB (35%)
  62. Title                                    : 粤语
  63. Language                                 : Chinese
  64. Default                                  : Yes
  65. Forced                                   : No
  66. Audio #2
  67. ID                                       : 3
  68. Format                                   : AC-3
  69. Format/Info                              : Audio Coding 3
  70. Commercial name                          : Dolby Digital
  71. Codec ID                                 : A_AC3
  72. Duration                                 : 1 h 35 min
  73. Bit rate mode                            : Constant
  74. Bit rate                                 : 640 kb/s
  75. Channel(s)                               : 6 channels
  76. Channel layout                           : L R C LFE Ls Rs
  77. Sampling rate                            : 48.0 kHz
  78. Frame rate                               : 31.250 FPS (1536 SPF)
  79. Compression mode                         : Lossy
  80. Stream size                              : 438 MiB (5%)
  81. Title                                    : 国语
  82. Language                                 : Chinese
  83. Service kind                             : Complete Main
  84. Default                                  : No
  85. Forced                                   : No
  86. Text #1
  87. ID                                       : 4
  88. Format                                   : PGS
  89. Muxing mode                              : zlib
  90. Codec ID                                 : S_HDMV/PGS
  91. Codec ID/Info                            : Picture based subtitle format used on BDs/HD-DVDs
  92. Duration                                 : 1 h 31 min
  93. Bit rate                                 : 30.3 kb/s
  94. Count of elements                        : 1808
  95. Stream size                              : 19.9 MiB (0%)
  96. Title                                    : 繁中
  97. Language                                 : Chinese
  98. Default                                  : Yes
  99. Forced                                   : No
  100. Text #2
  101. ID                                       : 5
  102. Format                                   : PGS
  103. Muxing mode                              : zlib
  104. Codec ID                                 : S_HDMV/PGS
  105. Codec ID/Info                            : Picture based subtitle format used on BDs/HD-DVDs
  106. Duration                                 : 1 h 31 min
  107. Bit rate                                 : 27.7 kb/s
  108. Count of elements                        : 1808
  109. Stream size                              : 18.2 MiB (0%)
  110. Title                                    : 英文
  111. Language                                 : English
  112. Default                                  : No
  113. Forced                                   : No
  114. Menu
  115. 00:00:00.000                             : :绗?01 绔?
  116. 00:07:22.042                             : :绗?02 绔?
  117. 00:10:01.333                             : :绗?03 绔?
  118. 00:15:47.000                             : :绗?04 绔?
  119. 00:20:45.500                             : :绗?05 绔?
  120. 00:26:16.000                             : :绗?06 绔?
  121. 00:28:16.042                             : :绗?07 绔?
  122. 00:33:43.542                             : :绗?08 绔?
  123. 00:38:28.958                             : :绗?09 绔?
  124. 00:42:57.083                             : :绗?10 绔?
  125. 00:47:29.917                             : :绗?11 绔?
  126. 00:51:23.292                             : :绗?12 绔?
  127. 00:55:42.000                             : :绗?13 绔?
  128. 01:02:31.000                             : :绗?14 绔?
  129. 01:07:50.667                             : :绗?15 绔?
  130. 01:11:44.042                             : :绗?16 绔?
  131. 01:15:51.917                             : :绗?17 绔?
  132. 01:20:21.250                             : :绗?18 绔?
  133. 01:24:14.083                             : :绗?19 绔?
  134. 01:29:11.667                             : :绗?20 绔?
复制代码

















保举请利用qBittorrent,utorrent,transmission等标准BT软件下载!以获得最快速度。奉求保种!





回复

使用道具 举报

懒得打字嘛,点击右侧快捷回复 【右侧内容,后台自定义】
您需要登录后才可以回帖 登录 | 立即加入

本版积分规则

Archiver|小黑屋| 蓝光电影网 |网站地图

Copyright © 2021 Comsenz Inc. Powered by 蓝光电影网

蓝光电影网

本站内容由用户自主分享和转载自互联网,转载目的在于传递更多信息,并不代表本网赞同其观点和对其真实性负责。

如有侵权、违反国家法律政策行为,请联系我们,我们会第一时间及时清除和处理!

举报反馈邮箱:[email protected]

快速回复 返回顶部 返回列表