找回密码

蓝光电影网

查看: 115|回复: 0

[剧情] 豪侠[国粤英多音轨/简繁英字幕].Last.Hurrah.for.Chivalry.1979.Bluray.1080p.x264.FLAC.2.0.3Audio-MOMOHD 8.04GB

[复制链接]
蓝光币
8
发表于 2022-7-27 02:16:52 | 显示全部楼层 |阅读模式


◎标  题 豪侠
◎译  名 Last Hurrah for Chivalry
◎片  名 豪俠
◎年  代 1979
◎产  地 中国香港
◎类  别 剧情 / 行动 / 武侠 / 古装
◎语  言 粤语
◎上映日期 1979-11-22
◎IMDb评分 7.1/10 (1525人评价)
◎IMDb链接 https://www.imdb.com/title/tt0077655/
◎豆瓣评分 7.2/10 (1477人评价)
◎豆瓣链接 https://movie.douban.com/subject/1302738/
◎片  长 106 分钟
◎导  演 吴宇森 John Woo
◎编  剧 吴宇森 John Woo
◎演  员 刘松仁 Damian Lau
       韦白 Pai Wei
       刘江 Kong Lau
       魏秋桦 Chiu-hua Wei
       冯克安 Hark-On Fung
       李海生 Hoi Sang Lee
       徐建华 Chui Kin-Wa
       钱月笙 Yuet Sang Chin
       泰山 San Tai
       冯润泉 Yun-Chuen Fung
       王光裕 Kuang Yu Wang
       陈绍佳 Shao-Chia Chen
       罗强 Chiang Lo
       江全 Chuen Chiang
       何其昌 Ho Kei-Cheong
       徐发 Fat Tsui
       亦嘉 Ka Yik
       火星 Mars
       徐忠信 Alan Chui Chung San
       文秀 Hsiu Wen
       黄哈 Ha Huang
       谭宝 Bo Tam
       张志平 Chi Ping Chang
       杜伟和 Wei Ho Tu
       邹文怀 Raymond Chow
       张耀宗 Peter Cheung
       冯克安 Hark-On Fung
       周少龙 Shao Lung Chou
◎标  签 吴宇森 / 武侠 / 香港 / 刘松仁 / 香港电影 / 行动 / 韦白 / 1979
◎简  介
  高家庄少主贵宾(刘江 饰)新婚之夜,遭受对头白忠堂的攻击。高败逃陈师公众,继而得知神道张三(韦白 饰)武功绝伦,行侠仗义,可为高家庄报仇。贵宾黑暗观察,见张三安贫乐道,奉母甚亲,因而成心接近,并派出刀客安若命试探其武功。                                    
                                张母逝,贵宾出资厚葬,令张三感激备至,因而不惜身家人命情愿为高家报仇。他和偶然结识的青年侠客青衣(刘松仁 饰)同闯白忠堂,刀光血影,血流漂杵。然士为知己者死,张三一腔热血报答贵宾,未料却投错了恩主……
  1. ##### MediaInfo ######
  2. General
  3. Unique ID                                : 272294048795683841148007797610331751101 (0xCCD9ED1D1BADC4721B205850C65BC2BD)
  4. Complete name                            : Last.Hurrah.for.Chivalry.1979.Bluray.1080p.x264.FLAC.2.0.3Audio-MOMOHD.mkv
  5. Format                                   : Matroska
  6. Format version                           : Version 4
  7. File size                                : 8.04 GiB
  8. Duration                                 : 1 h 46 min
  9. Overall bit rate mode                    : Variable
  10. Overall bit rate                         : 10.8 Mb/s
  11. Encoded date                             : UTC 2019-07-09 01:07:16
  12. Writing application                      : mkvmerge v35.0.0 ('All The Love In The World') 64-bit
  13. Writing library                          : libebml v1.3.9 + libmatroska v1.5.2
  14. Video
  15. ID                                       : 1
  16. Format                                   : AVC
  17. Format/Info                              : Advanced Video Codec
  18. Format profile                           : [email protected]
  19. Format settings                          : CABAC / 5 Ref Frames
  20. Format settings, CABAC                   : Yes
  21. Format settings, Reference frames        : 5 frames
  22. Codec ID                                 : V_MPEG4/ISO/AVC
  23. Duration                                 : 1 h 46 min
  24. Bit rate                                 : 8 041 kb/s
  25. Width                                    : 1 920 pixels
  26. Height                                   : 804 pixels
  27. Display aspect ratio                     : 2.40:1
  28. Frame rate mode                          : Constant
  29. Frame rate                               : 23.976 (24000/1001/53875) FPS
  30. Color space                              : YUV
  31. Chroma subsampling                       : 4:2:0
  32. Bit depth                                : 8 bits
  33. Scan type                                : Progressive
  34. Bits/(Pixel*Frame)                       : 0.217
  35. Stream size                              : 5.98 GiB (74%)
  36. Title                                    : [email protected]
  37. Writing library                          : x264 core 148 r2692+46 0f71ed5 7mod [[email protected] X86_64]
  38. Encoding settings                        : cabac=1 / ref=5 / deblock=1:-3:-3 / analyse=0x3:0x113 / me=umh / subme=11 / psy=1 / fade_compensate=0.00 / psy_rd=1.00:0.00 / mixed_ref=1 / me_range=48 / chroma_me=1 / trellis=2 / 8x8dct=1 / cqm=0 / deadzone=11,6 / fast_pskip=0 / chroma_qp_offset=-2 / threads=24 / lookahead_threads=4 / sliced_threads=0 / nr=0 / decimate=0 / interlaced=0 / NTM4NzU= / bluray_compat=0 / constrained_intra=0 / fgo=0 / bframes=8 / b_pyramid=2 / b_adapt=2 / b_bias=0 / direct=3 / weightb=1 / open_gop=0 / weightp=2 / keyint=250 / keyint_min=23 / NTM4NzU=uuDQuD2mJt9fsCf / scenecut=40 / intra_refresh=0 / rc_lookahead=60 / rc=crf / mbtree=0 / crf=23.0000 / qcomp=0.60 / qpmin=0:0:0 / qpmax=32:32:32 / qpstep=4 / vbv_maxrate=40000 / vbv_bufsize=30000 / crf_max=0.0 / nal_hrd=none / filler=0 / NTM4NzU=LmsMAP37EqsCpk / ip_ratio=1.30 / pb_ratio=1.20 / aq=4:0.80 / aq-sensitivity=10.00 / aq-factor=1.00:1.00:1.00 / aq2=0 / aq3=0
  39. Language                                 : Chinese
  40. Default                                  : Yes
  41. Forced                                   : No
  42. Color range                              : Limited
  43. Color primaries                          : BT.709
  44. Transfer characteristics                 : BT.709
  45. Matrix coefficients                      : BT.709
  46. Audio #1
  47. ID                                       : 2
  48. Format                                   : FLAC
  49. Format/Info                              : Free Lossless Audio Codec
  50. Codec ID                                 : A_FLAC
  51. Duration                                 : 1 h 46 min
  52. Bit rate mode                            : Variable
  53. Bit rate                                 : 1 262 kb/s
  54. Channel(s)                               : 2 channels
  55. Channel layout                           : L R
  56. Sampling rate                            : 48.0 kHz
  57. Frame rate                               : 11.719 FPS (4096 SPF)
  58. Bit depth                                : 24 bits
  59. Compression mode                         : Lossless
  60. Stream size                              : 962 MiB (12%)
  61. Title                                    : 粤语
  62. Writing library                          : libFLAC 1.2.1 (UTC 2007-09-17)
  63. Language                                 : Chinese
  64. Default                                  : Yes
  65. Forced                                   : No
  66. Audio #2
  67. ID                                       : 3
  68. Format                                   : FLAC
  69. Format/Info                              : Free Lossless Audio Codec
  70. Codec ID                                 : A_FLAC
  71. Duration                                 : 1 h 46 min
  72. Bit rate mode                            : Variable
  73. Bit rate                                 : 1 280 kb/s
  74. Channel(s)                               : 2 channels
  75. Channel layout                           : L R
  76. Sampling rate                            : 48.0 kHz
  77. Frame rate                               : 11.719 FPS (4096 SPF)
  78. Bit depth                                : 24 bits
  79. Compression mode                         : Lossless
  80. Stream size                              : 976 MiB (12%)
  81. Title                                    : 国语
  82. Writing library                          : libFLAC 1.2.1 (UTC 2007-09-17)
  83. Language                                 : Chinese
  84. Default                                  : No
  85. Forced                                   : No
  86. Audio #3
  87. ID                                       : 4
  88. Format                                   : FLAC
  89. Format/Info                              : Free Lossless Audio Codec
  90. Codec ID                                 : A_FLAC
  91. Duration                                 : 1 h 46 min
  92. Bit rate mode                            : Variable
  93. Bit rate                                 : 210 kb/s
  94. Channel(s)                               : 1 channel
  95. Channel layout                           : C
  96. Sampling rate                            : 48.0 kHz
  97. Frame rate                               : 11.719 FPS (4096 SPF)
  98. Bit depth                                : 16 bits
  99. Compression mode                         : Lossless
  100. Stream size                              : 160 MiB (2%)
  101. Title                                    : 英语
  102. Writing library                          : libFLAC 1.2.1 (UTC 2007-09-17)
  103. Language                                 : English
  104. Default                                  : No
  105. Forced                                   : No
  106. Text #1
  107. ID                                       : 5
  108. Format                                   : UTF-8
  109. Codec ID                                 : S_TEXT/UTF8
  110. Codec ID/Info                            : UTF-8 Plain Text
  111. Duration                                 : 1 h 36 min
  112. Bit rate                                 : 27 b/s
  113. Count of elements                        : 794
  114. Stream size                              : 19.6 KiB (0%)
  115. Title                                    : 简中(国语)
  116. Language                                 : Chinese
  117. Default                                  : Yes
  118. Forced                                   : No
  119. Text #2
  120. ID                                       : 6
  121. Format                                   : UTF-8
  122. Codec ID                                 : S_TEXT/UTF8
  123. Codec ID/Info                            : UTF-8 Plain Text
  124. Duration                                 : 1 h 36 min
  125. Bit rate                                 : 27 b/s
  126. Count of elements                        : 794
  127. Stream size                              : 19.6 KiB (0%)
  128. Title                                    : 繁中(国语)
  129. Language                                 : Chinese
  130. Default                                  : No
  131. Forced                                   : No
  132. Text #3
  133. ID                                       : 7
  134. Format                                   : UTF-8
  135. Codec ID                                 : S_TEXT/UTF8
  136. Codec ID/Info                            : UTF-8 Plain Text
  137. Duration                                 : 1 h 45 min
  138. Bit rate                                 : 26 b/s
  139. Count of elements                        : 788
  140. Stream size                              : 20.2 KiB (0%)
  141. Title                                    : 简中(粤语)
  142. Language                                 : Chinese
  143. Default                                  : No
  144. Forced                                   : No
  145. Text #4
  146. ID                                       : 8
  147. Format                                   : UTF-8
  148. Codec ID                                 : S_TEXT/UTF8
  149. Codec ID/Info                            : UTF-8 Plain Text
  150. Duration                                 : 1 h 45 min
  151. Bit rate                                 : 26 b/s
  152. Count of elements                        : 788
  153. Stream size                              : 20.2 KiB (0%)
  154. Title                                    : 繁中(粤语)
  155. Language                                 : Chinese
  156. Default                                  : No
  157. Forced                                   : No
  158. Text #5
  159. ID                                       : 9
  160. Format                                   : ASS
  161. Codec ID                                 : S_TEXT/ASS
  162. Codec ID/Info                            : Advanced Sub Station Alpha
  163. Duration                                 : 1 h 45 min
  164. Bit rate                                 : 110 b/s
  165. Count of elements                        : 1884
  166. Compression mode                         : Lossless
  167. Stream size                              : 85.5 KiB (0%)
  168. Title                                    : 简英
  169. Language                                 : Chinese
  170. Default                                  : No
  171. Forced                                   : No
  172. Text #6
  173. ID                                       : 10
  174. Format                                   : ASS
  175. Codec ID                                 : S_TEXT/ASS
  176. Codec ID/Info                            : Advanced Sub Station Alpha
  177. Duration                                 : 1 h 45 min
  178. Bit rate                                 : 111 b/s
  179. Count of elements                        : 1878
  180. Compression mode                         : Lossless
  181. Stream size                              : 85.9 KiB (0%)
  182. Title                                    : 繁英
  183. Language                                 : Chinese
  184. Default                                  : No
  185. Forced                                   : No
  186. Text #7
  187. ID                                       : 11
  188. Format                                   : PGS
  189. Muxing mode                              : zlib
  190. Codec ID                                 : S_HDMV/PGS
  191. Codec ID/Info                            : Picture based subtitle format used on BDs/HD-DVDs
  192. Duration                                 : 1 h 45 min
  193. Bit rate                                 : 26.8 kb/s
  194. Count of elements                        : 2178
  195. Stream size                              : 20.2 MiB (0%)
  196. Title                                    : 英文
  197. Language                                 : English
  198. Default                                  : No
  199. Forced                                   : No
  200. Menu
  201. 00:00:00.000                             : :绗?01 绔?
  202. 00:09:58.431                             : :绗?02 绔?
  203. 00:17:05.358                             : :绗?03 绔?
  204. 00:26:37.554                             : :绗?04 绔?
  205. 00:37:05.723                             : :绗?05 绔?
  206. 00:42:28.421                             : :绗?06 绔?
  207. 00:49:15.536                             : :绗?07 绔?
  208. 00:58:11.279                             : :绗?08 绔?
  209. 01:12:49.907                             : :绗?09 绔?
  210. 01:19:39.525                             : :绗?10 绔?
  211. 01:32:29.043                             : :绗?11 绔?
  212. 01:41:30.293                             : :绗?12 绔?
复制代码

















保举请利用qBittorrent,utorrent,transmission等标准BT软件下载!以获得最快速度。奉求保种!





回复

使用道具 举报

懒得打字嘛,点击右侧快捷回复 【右侧内容,后台自定义】
您需要登录后才可以回帖 登录 | 立即加入

本版积分规则

Archiver|小黑屋| 蓝光电影网 |网站地图

Copyright © 2021 Comsenz Inc. Powered by 蓝光电影网

蓝光电影网

本站内容由用户自主分享和转载自互联网,转载目的在于传递更多信息,并不代表本网赞同其观点和对其真实性负责。

如有侵权、违反国家法律政策行为,请联系我们,我们会第一时间及时清除和处理!

举报反馈邮箱:[email protected]

快速回复 返回顶部 返回列表