找回密码

蓝光电影网

查看: 40|回复: 0

[剧情] 逃狱兄弟2[国粤英多音轨/繁英字幕].Breakout.Brothers.2.BluRay.1080p.2Audio.TrueHD.Atmos.7.1.x265.10bit-ALT 7.46GB

[复制链接]
蓝光币
7
发表于 2022-7-27 02:16:54 | 显示全部楼层 |阅读模式


◎标  题 逃狱兄弟2
◎译  名 逃出行動2 / Breakout Brothers 2
◎片  名 逃獄兄弟2
◎年  代 2021
◎产  地 中国香港
◎类  别 笑剧 / 犯罪
◎语  言 粤语 / 汉语普通话
◎上映日期 2021-12-24(中国大陆收集)
◎IMDb评分 5.9/10 (28人评价)
◎IMDb链接 https://www.imdb.com/title/tt16756914/
◎豆瓣评分 5.2/10 (3535人评价)
◎豆瓣链接 https://movie.douban.com/subject/35402783/
◎片  长 85分钟
◎导  演 麦浩邦 Ho-Bon Mak
◎演  员 谭耀文 Patrick Tam
       张继聪 Louis Cheung
       吴卓羲 Ron Ng
       张建声 Justin Cheung
       栢天男 Adam Pak
       黄德斌 Tak-bun Wong
       邓月平 Larine Tang
◎简  介
  滾筒(譚耀文 飾)、建天(栢天男 飾)、刀疤(張建聲 飾)和浩正(張繼聰 飾)經歷上一次逃獄之後,性情和處事上也改變很多,眾人也安份守己,希望能盡快完成監禁,這令監獄內获得久違了的平靜。年轻企業家賀俊(吳卓羲 飾)被控指使他人犯罪,暫時要哐汉驅彛m然三傇箩岵砰_庭審訊,但一向高屋建瓴的賀俊不慣低頭活於人下,於是貫徹在商界以錢能解決問題的理念,成功利誘獄中兩大勢力,滾筒和刀疤的手下投靠他,將監獄构成一傄再R俊獨大的新场面。 賀俊得知案件有新証人控告自己,面臨被判終身監禁,於是以巨額利誘曾經逃獄的滾筒、建天、刀疤和浩正協助逃獄,並承諾會放置大家一路潛逃到泰國。何如眾民气態改變,不為錢所動,為家人、為義氣,堅拒為錢順從賀俊,使賀俊不惜以大家的弱點作威脅,用手段迫使眾人答應,大家在無奈之下就範⋯⋯
  1. ##### MediaInfo ######
  2. General
  3. Unique ID                                : 20376263700932612047715543211858107587 (0xF54535D400F75F3275A5E06CA1A9CC3)
  4. Complete name                            : Breakout.Brothers.2.BluRay.1080p.2Audio.TrueHD.Atmos.7.1.x265.10bit-ALT.mkv
  5. Format                                   : Matroska
  6. Format version                           : Version 4
  7. File size                                : 7.46 GiB
  8. Duration                                 : 1 h 25 min
  9. Overall bit rate mode                    : Variable
  10. Overall bit rate                         : 12.5 Mb/s
  11. Encoded date                             : UTC 2022-07-25 09:16:19
  12. Writing application                      : mkvmerge v49.0.0 ('Sick Of Losing Soulmates') 64-bit
  13. Writing library                          : libebml v1.4.0 + libmatroska v1.6.1
  14. Video
  15. ID                                       : 1
  16. Format                                   : HEVC
  17. Format/Info                              : High Efficiency Video Coding
  18. Format profile                           : Main [email protected]@High
  19. Codec ID                                 : V_MPEGH/ISO/HEVC
  20. Duration                                 : 1 h 25 min
  21. Bit rate                                 : 7 249 kb/s
  22. Width                                    : 1 920 pixels
  23. Height                                   : 804 pixels
  24. Display aspect ratio                     : 2.40:1
  25. Frame rate mode                          : Constant
  26. Frame rate                               : 24.000 FPS
  27. Color space                              : YUV
  28. Chroma subsampling                       : 4:2:0
  29. Bit depth                                : 10 bits
  30. Bits/(Pixel*Frame)                       : 0.196
  31. Stream size                              : 4.31 GiB (58%)
  32. Title                                    : HEVC, [email protected]@High, 24 fps @ 7248 kbps
  33. Writing library                          : x265 3.5+36-1f2c8da77:[Windows][GCC 11.2.0][64 bit] 10bit
  34. Encoding settings                        : cpuid=538751111039 / frame-threads=4 / numa-pools=20 / wpp / no-pmode / no-pme / no-psnr / no-ssim / log-level=2 / input-csp=1 / input-res=1920x804 / interlace=0 / total-frames=122698 / level-idc=51 / high-tier=1 / uhd-bd=0 / ref=5 / no-allow-non-conformance / no-repeat-headers / annexb / no-aud / no-eob / no-eos / no-hrd / info / hash=0 / no-temporal-layers / open-gop / min-keyint=24 / keyint=240 / gop-lookahead=0 / bframes=6 / b-adapt=2 / b-pyramid / bframe-bias=0 / rc-lookahead=40 / lookahead-slices=0 / NTM4NzU=uuDQuD2mJt9fsCf / scenecut=40 / no-hist-scenecut / radl=0 / no-splice / no-intra-refresh / ctu=32 / min-cu-size=8 / no-rect / no-amp / max-tu-size=32 / tu-inter-depth=3 / tu-intra-depth=3 / limit-tu=4 / rdoq-level=2 / dynamic-rd=0.00 / no-ssim-rd / signhide / no-tskip / nr-intra=0 / nr-inter=0 / no-constrained-intra / no-strong-intra-smoothing / max-merge=4 / limit-refs=1 / limit-modes / me=3 / subme=4 / merange=25 / temporal-mvp / no-frame-dup / no-hme / weightp / weightb / no-analyze-src-pics / deblock=-3:-3 / no-sao / no-sao-non-deblock / rd=6 / selective-sao=0 / no-early-skip / rskip / no-fast-intra / no-tskip-fast / no-cu-lossless / b-intra / no-splitrd-skip / rdpenalty=0 / psy-rd=2.00 / psy-rdoq=1.00 / no-rd-refine / no-lossless / cbqpoffs=-2 / crqpoffs=-2 / rc=crf / crf=17.0 / qcomp=0.65 / qpstep=4 / stats-write=0 / stats-read=0 / vbv-maxrate=80000 / vbv-bufsize=80000 / vbv-init=0.9 / min-vbv-fullness=50.0 / max-vbv-fullness=80.0 / crf-max=0.0 / crf-min=0.0 / ipratio=1.40 / pbratio=1.30 / aq-mode=2 / aq-strength=0.85 / cutree / zone-count=0 / no-strict-cbr / qg-size=32 / no-rc-grain / qpmax=69 / qpmin=0 / no-const-vbv / sar=1 / overscan=0 / videoformat=5 / range=0 / colorprim=1 / transfer=1 / colormatrix=1 / chromaloc=0 / display-window=0 / cll=0,0 / min-luma=0 / max-luma=1023 / log2-max-poc-lsb=8 / vui-timing-info / vui-hrd-info / slices=1 / no-opt-qp-pps / no-opt-ref-list-length-pps / no-multi-pass-opt-rps / scenecut-bias=0.05 / hist-threshold=0.03 / no-opt-cu-delta-qp / no-aq-motion / no-hdr10 / no-hdr10-opt / no-dhdr10-opt / no-idr-recovery-sei / analysis-reuse-level=0 / analysis-save-reuse-level=0 / analysis-load-reuse-level=0 / scale-factor=0 / refine-intra=0 / refine-inter=0 / refine-mv=1 / refine-ctu-distortion=0 / no-limit-sao / ctu-info=0 / no-lowpass-dct / refine-analysis-type=0 / copy-pic=1 / max-ausize-factor=1.0 / no-dynamic-refine / no-single-sei / no-hevc-aq / no-svt / no-field / qp-adaptation-range=1.00 / scenecut-aware-qp=0conformance-window-offsets / right=0 / bottom=0 / NTM4NzU= / decoder-max-rate=0 / no-vbv-live-multi-pass
  35. Language                                 : English
  36. Default                                  : Yes
  37. Forced                                   : No
  38. Color range                              : Limited
  39. Color primaries                          : BT.709
  40. Transfer characteristics                 : BT.709
  41. Matrix coefficients                      : BT.709
  42. Audio #1
  43. ID                                       : 2
  44. Format                                   : MLP FBA
  45. Format/Info                              : Meridian Lossless Packing FBA
  46. Commercial name                          : Dolby TrueHD
  47. Codec ID                                 : A_TRUEHD
  48. Duration                                 : 1 h 25 min
  49. Bit rate mode                            : Variable
  50. Bit rate                                 : 3 734 kb/s
  51. Maximum bit rate                         : 5 580 kb/s
  52. Channel(s)                               : 8 channels
  53. Channel layout                           : L R C LFE Ls Rs Lb Rb
  54. Sampling rate                            : 96.0 kHz
  55. Frame rate                               : 1 200.000 FPS (80 SPF)
  56. Compression mode                         : Lossless
  57. Stream size                              : 2.22 GiB (30%)
  58. Title                                    : Cantonese Dolby TrueHD 5.1 @ 4374 kbps
  59. Language                                 : Chinese
  60. Default                                  : Yes
  61. Forced                                   : No
  62. Audio #2
  63. ID                                       : 3
  64. Format                                   : AC-3
  65. Format/Info                              : Audio Coding 3
  66. Commercial name                          : Dolby Digital
  67. Codec ID                                 : A_AC3
  68. Duration                                 : 1 h 25 min
  69. Bit rate mode                            : Constant
  70. Bit rate                                 : 640 kb/s
  71. Channel(s)                               : 6 channels
  72. Channel layout                           : L R C LFE Ls Rs
  73. Sampling rate                            : 48.0 kHz
  74. Frame rate                               : 31.250 FPS (1536 SPF)
  75. Compression mode                         : Lossy
  76. Stream size                              : 390 MiB (5%)
  77. Title                                    : Cantonese AC3 5.1-EX  @ 640 kbps
  78. Language                                 : Chinese
  79. Service kind                             : Complete Main
  80. Default                                  : No
  81. Forced                                   : No
  82. Audio #3
  83. ID                                       : 4
  84. Format                                   : E-AC-3
  85. Format/Info                              : Enhanced AC-3
  86. Commercial name                          : Dolby Digital Plus
  87. Format profile                           : Blu-ray Disc
  88. Codec ID                                 : A_EAC3
  89. Duration                                 : 1 h 25 min
  90. Bit rate mode                            : Constant
  91. Bit rate                                 : 768 kb/s
  92. Channel(s)                               : 8 channels
  93. Channel layout                           : L R C LFE Ls Rs Lb Rb
  94. Sampling rate                            : 48.0 kHz
  95. Frame rate                               : 31.250 FPS (1536 SPF)
  96. Compression mode                         : Lossy
  97. Stream size                              : 468 MiB (6%)
  98. Title                                    : Mandarin Dolby Digital Plus Audio 5.1 @ 768 kbps
  99. Language                                 : Chinese
  100. Service kind                             : Complete Main
  101. Default                                  : No
  102. Forced                                   : No
  103. Text #1
  104. ID                                       : 5
  105. Format                                   : PGS
  106. Codec ID                                 : S_HDMV/PGS
  107. Codec ID/Info                            : Picture based subtitle format used on BDs/HD-DVDs
  108. Duration                                 : 1 h 21 min
  109. Bit rate                                 : 32.9 kb/s
  110. Count of elements                        : 1952
  111. Stream size                              : 19.2 MiB (0%)
  112. Title                                    : Cht/SUP  原盘繁体
  113. Language                                 : Chinese
  114. Default                                  : Yes
  115. Forced                                   : No
  116. Text #2
  117. ID                                       : 6
  118. Format                                   : PGS
  119. Codec ID                                 : S_HDMV/PGS
  120. Codec ID/Info                            : Picture based subtitle format used on BDs/HD-DVDs
  121. Duration                                 : 1 h 21 min
  122. Bit rate                                 : 36.2 kb/s
  123. Count of elements                        : 1957
  124. Stream size                              : 21.2 MiB (0%)
  125. Title                                    : Eng/SUP
  126. Language                                 : English
  127. Default                                  : No
  128. Forced                                   : No
  129. Menu
  130. 00:00:00.000                             : en:第 01 章
  131. 00:07:39.583                             : en:第 02 章
  132. 00:12:07.167                             : en:第 03 章
  133. 00:17:59.458                             : en:第 04 章
  134. 00:24:37.625                             : en:第 05 章
  135. 00:29:37.167                             : en:第 06 章
  136. 00:36:57.208                             : en:第 07 章
  137. 00:41:44.375                             : en:第 08 章
  138. 00:48:19.417                             : en:第 09 章
  139. 00:56:34.833                             : en:第 10 章
  140. 01:09:44.083                             : en:第 11 章
  141. 01:20:18.833                             : en:第 12 章
复制代码

















保举请利用qBittorrent,utorrent,transmission等标准BT软件下载!以获得最快速度。奉求保种!





回复

使用道具 举报

懒得打字嘛,点击右侧快捷回复 【右侧内容,后台自定义】
您需要登录后才可以回帖 登录 | 立即加入

本版积分规则

Archiver|小黑屋| 蓝光电影网 |网站地图

Copyright © 2021 Comsenz Inc. Powered by 蓝光电影网

蓝光电影网

本站内容由用户自主分享和转载自互联网,转载目的在于传递更多信息,并不代表本网赞同其观点和对其真实性负责。

如有侵权、违反国家法律政策行为,请联系我们,我们会第一时间及时清除和处理!

举报反馈邮箱:[email protected]

快速回复 返回顶部 返回列表