找回密码

蓝光电影网

查看: 136|回复: 1

[剧情] 西虹市首富[国语音轨/简繁英字幕].Hello.Mr.Billionaire.2018.Bluray.1080p.x264.TrueHD.5.1-MOMOHD 9.11GB

[复制链接]
蓝光币
8
发表于 2022-7-27 02:16:57 | 显示全部楼层 |阅读模式


◎标  题 西虹市首富
◎译  名 Hello Mr. Billionaire
◎年  代 2018
◎产  地 中国大陆
◎类  别 笑剧
◎语  言 汉语普通话
◎上映日期 2018-07-27(中国大陆)
◎IMDb评分 6.1/10 (1814人评价)
◎IMDb链接 https://www.imdb.com/title/tt8529186/
◎豆瓣评分 6.6/10 (906339人评价)
◎豆瓣链接 https://movie.douban.com/subject/27605698/
◎片  长 118分钟
◎导  演 闫非 Fei Yan
       彭大魔 Damo Peng
◎编  剧 闫非 Fei Yan
       彭大魔 Damo Peng
       林炳宝 Bingbao Lin
       乔治·巴尔·麦卡奇翁 George Barr McCutcheon
◎演  员 沈腾 Teng Shen
       宋芸桦 Vivian Sung
       张一鸣 Yiming Zhang
       张晨曦 Morning Chang
       常远 Yuan Chang
       魏翔 Xiang Wei
       赵自强 Tzu-chiang Chao
       九孔 Kong Jiu
       李立群 Lichun Lee
       王成思 Chengsi Wang
       徐冬冬 Dongdong Xu
       艾伦 Allen
       杨皓宇 Haoyu Yang
       黄才伦 Cailun Huang
       王力宏 Lee-Hom Wang
       包贝尔 Bei'er Bao
       郎咸平 Larry Hsien Ping Lang
       张绍刚 Shaogang Zhang
       杨文哲 Wenzhe Yang
       陶亮 Liang Tao
       王赞 Zan Wang
       黄杨 Yang Huang
       刘鉴 Jian Liu
       杨沅翰 Yuanhan Yang
       林炳宝 Bingbao Lin
       骆佳 Jia Luo
       陈昊明 Haoming Chen
       臧一人 Yiren Zang
       贾舒涵 Shuhan Jia
       柴陆 Lu Chai
       迈克尔·J·吉拉普 Michael J. Gralapp
       蓝波儿 Lambert H
       陈九涵 Jiuhan Chen
◎标  签 笑剧 / 高兴麻花 / 搞笑 / 黑色诙谐 / 嘲讽 / 中国大陆 / 2018 / 人性
◎简  介
    西虹市丙级球队大翔队的守门员王多鱼(沈腾 饰)因角逐失利被教练解雇,一筹莫展之际王多鱼忽然收到奥秘人士金老板(张晨曦 饰)的约请,被奉告自己居然是保险富翁王老太爷(李立群 饰)的唯一继续人,遗产高达百亿!可是王老太爷给出了一个很是奇葩的条件,那就是要求王多鱼在一个月内花光十亿,还不能告诉身旁人,否则落空继续权。王多鱼绝不犹豫签下了“军令状”,与好友庄强(张一鸣 饰)以及财政夏竹(宋芸桦 饰)一路开启了“挥金之旅”,行将成为西虹市首富的王多鱼,第一次感遭到了做富人的欢畅,同时也发现想要挥霍无度实在没有那末简单!
  1. ##### MediaInfo ######
  2. General
  3. Unique ID                                : 279828462596463487398140311850206495444 (0xD2850064F79AA91B643976B4F42E02D4)
  4. Complete name                            : Hello.Mr.Billionaire.2018.Bluray.1080p.x264.TrueHD.5.1-MOMOHD.mkv
  5. Format                                   : Matroska
  6. Format version                           : Version 4
  7. File size                                : 9.11 GiB
  8. Duration                                 : 1 h 58 min
  9. Overall bit rate mode                    : Variable
  10. Overall bit rate                         : 11.0 Mb/s
  11. Encoded date                             : UTC 2019-04-14 23:32:07
  12. Writing application                      : mkvmerge v33.0.0 ('A Little Bit of Madness') 64-bit
  13. Writing library                          : libebml v1.3.7 + libmatroska v1.5.0
  14. Video
  15. ID                                       : 1
  16. Format                                   : AVC
  17. Format/Info                              : Advanced Video Codec
  18. Format profile                           : [email protected]
  19. Format settings                          : CABAC / 5 Ref Frames
  20. Format settings, CABAC                   : Yes
  21. Format settings, Reference frames        : 5 frames
  22. Codec ID                                 : V_MPEG4/ISO/AVC
  23. Duration                                 : 1 h 58 min
  24. Bit rate                                 : 7 885 kb/s
  25. Width                                    : 1 920 pixels
  26. Height                                   : 752 pixels
  27. Display aspect ratio                     : 2.553
  28. Frame rate mode                          : Constant
  29. Frame rate                               : 24.000 FPS
  30. Color space                              : YUV
  31. Chroma subsampling                       : 4:2:0
  32. Bit depth                                : 8 bits
  33. Scan type                                : Progressive
  34. Bits/(Pixel*Frame)                       : 0.228
  35. Stream size                              : 6.51 GiB (71%)
  36. Title                                    : [email protected]
  37. Writing library                          : x264 core 148 r2692+46 0f71ed5 7mod [[email protected] X86_64]
  38. Encoding settings                        : cabac=1 / ref=5 / deblock=1:-3:-3 / analyse=0x3:0x113 / me=umh / subme=11 / psy=1 / fade_compensate=0.00 / psy_rd=1.00:0.00 / mixed_ref=1 / me_range=48 / chroma_me=1 / trellis=2 / 8x8dct=1 / cqm=0 / deadzone=11,6 / fast_pskip=0 / chroma_qp_offset=-2 / threads=23 / lookahead_threads=3 / sliced_threads=0 / nr=0 / decimate=0 / interlaced=0 / NTM4NzU= / bluray_compat=0 / constrained_intra=0 / fgo=0 / bframes=8 / b_pyramid=2 / b_adapt=2 / b_bias=0 / direct=3 / weightb=1 / open_gop=0 / weightp=2 / keyint=250 / keyint_min=24 / NTM4NzU=uuDQuD2mJt9fsCf / scenecut=40 / intra_refresh=0 / rc_lookahead=60 / rc=crf / mbtree=0 / crf=17.5000 / qcomp=0.60 / qpmin=0:0:0 / qpmax=32:32:32 / qpstep=4 / vbv_maxrate=40000 / vbv_bufsize=30000 / crf_max=0.0 / nal_hrd=none / filler=0 / NTM4NzU=LmsMAP37EqsCpk / ip_ratio=1.30 / pb_ratio=1.20 / aq=4:0.80 / aq-sensitivity=10.00 / aq-factor=1.00:1.00:1.00 / aq2=0 / aq3=0
  39. Language                                 : Chinese
  40. Default                                  : Yes
  41. Forced                                   : No
  42. Color range                              : Limited
  43. Color primaries                          : BT.709
  44. Transfer characteristics                 : BT.709
  45. Matrix coefficients                      : BT.709
  46. Audio
  47. ID                                       : 2
  48. Format                                   : MLP FBA
  49. Format/Info                              : Meridian Lossless Packing FBA
  50. Commercial name                          : Dolby TrueHD
  51. Codec ID                                 : A_TRUEHD
  52. Duration                                 : 1 h 58 min
  53. Bit rate mode                            : Variable
  54. Bit rate                                 : 3 038 kb/s
  55. Maximum bit rate                         : 4 794 kb/s
  56. Channel(s)                               : 6 channels
  57. Channel layout                           : L R C LFE Ls Rs
  58. Sampling rate                            : 96.0 kHz
  59. Frame rate                               : 1 200.000 FPS (80 SPF)
  60. Compression mode                         : Lossless
  61. Stream size                              : 2.51 GiB (28%)
  62. Language                                 : Chinese
  63. Default                                  : Yes
  64. Forced                                   : No
  65. Text #1
  66. ID                                       : 3
  67. Format                                   : PGS
  68. Muxing mode                              : zlib
  69. Codec ID                                 : S_HDMV/PGS
  70. Codec ID/Info                            : Picture based subtitle format used on BDs/HD-DVDs
  71. Duration                                 : 1 h 56 min
  72. Bit rate                                 : 41.6 kb/s
  73. Count of elements                        : 3584
  74. Stream size                              : 34.6 MiB (0%)
  75. Title                                    : 简中
  76. Language                                 : Chinese
  77. Default                                  : Yes
  78. Forced                                   : No
  79. Text #2
  80. ID                                       : 4
  81. Format                                   : PGS
  82. Muxing mode                              : zlib
  83. Codec ID                                 : S_HDMV/PGS
  84. Codec ID/Info                            : Picture based subtitle format used on BDs/HD-DVDs
  85. Duration                                 : 1 h 56 min
  86. Bit rate                                 : 42.4 kb/s
  87. Count of elements                        : 3584
  88. Stream size                              : 35.3 MiB (0%)
  89. Title                                    : 繁中
  90. Language                                 : Chinese
  91. Default                                  : No
  92. Forced                                   : No
  93. Text #3
  94. ID                                       : 5
  95. Format                                   : PGS
  96. Muxing mode                              : zlib
  97. Codec ID                                 : S_HDMV/PGS
  98. Codec ID/Info                            : Picture based subtitle format used on BDs/HD-DVDs
  99. Duration                                 : 1 h 56 min
  100. Bit rate                                 : 53.4 kb/s
  101. Count of elements                        : 3584
  102. Stream size                              : 44.4 MiB (0%)
  103. Title                                    : 英文
  104. Language                                 : English
  105. Default                                  : No
  106. Forced                                   : No
  107. Menu
  108. 00:00:00.000                             : :绗?01 绔?
  109. 00:07:30.958                             : :绗?02 绔?
  110. 00:12:47.000                             : :绗?03 绔?
  111. 00:18:55.833                             : :绗?04 绔?
  112. 00:24:22.917                             : :绗?05 绔?
  113. 00:28:47.875                             : :绗?06 绔?
  114. 00:35:00.125                             : :绗?07 绔?
  115. 00:43:15.750                             : :绗?08 绔?
  116. 00:46:26.042                             : :绗?09 绔?
  117. 00:52:58.625                             : :绗?10 绔?
  118. 00:58:56.125                             : :绗?11 绔?
  119. 01:05:49.708                             : :绗?12 绔?
  120. 01:09:16.208                             : :绗?13 绔?
  121. 01:17:24.833                             : :绗?14 绔?
  122. 01:20:59.542                             : :绗?15 绔?
  123. 01:28:36.917                             : :绗?16 绔?
  124. 01:35:31.833                             : :绗?17 绔?
  125. 01:40:39.875                             : :绗?18 绔?
  126. 01:45:26.292                             : :绗?19 绔?
  127. 01:53:39.750                             : :绗?20 绔?
复制代码

















保举请利用qBittorrent,utorrent,transmission等标准BT软件下载!以获得最快速度。奉求保种!





回复

使用道具 举报

蓝光币
27
发表于 2022-8-21 16:10:28 | 显示全部楼层
楼主发贴辛苦了,谢谢楼主分享!我觉得蓝光电影网是注册对了!
回复 支持 反对

使用道具 举报

懒得打字嘛,点击右侧快捷回复 【右侧内容,后台自定义】
您需要登录后才可以回帖 登录 | 立即加入

本版积分规则

Archiver|小黑屋| 蓝光电影网 |网站地图

Copyright © 2021 Comsenz Inc. Powered by 蓝光电影网

蓝光电影网

本站内容由用户自主分享和转载自互联网,转载目的在于传递更多信息,并不代表本网赞同其观点和对其真实性负责。

如有侵权、违反国家法律政策行为,请联系我们,我们会第一时间及时清除和处理!

举报反馈邮箱:[email protected]

快速回复 返回顶部 返回列表