找回密码

蓝光电影网

查看: 119|回复: 0

[剧情] 大师兄[国粤多音轨/简繁英字幕].Big.Brother.2018.Bluray.1080p.x265.10bit.DTS.5.1.2Audio-MOMOHD 9.18GB

[复制链接]
蓝光币
8
发表于 2022-7-27 02:17:00 | 显示全部楼层 |阅读模式


◎标  题 大师兄
◎译  名 我的教员是拳霸 / Big Brother
◎片  名 大師兄
◎年  代 2018
◎产  地 中国大陆 / 中国香港
◎类  别 笑剧 / 行动
◎语  言 粤语 / 汉语普通话
◎上映日期 2018-08-24(中国大陆)
◎IMDb评分 6.3/10 (2713人评价)
◎IMDb链接 https://www.imdb.com/title/tt7336572/
◎豆瓣评分 5.1/10 (38769人评价)
◎豆瓣链接 https://movie.douban.com/subject/27201353/
◎片  长 100分钟
◎导  演 阚家伟 Ka-Wai Kam
◎编  剧 阚家伟 Ka-Wai Kam
       陈大利 Tai-lee Chan
◎演  员 甄子丹 Donnie Yen
       陈乔恩 Joe Chen
       喻亢 Kang Yu
       骆明劼 Mingjie Luo
       汤君慈 Bruce Tong
       汤君耀 Chris Tong
       李靖筠 Gladys Li
       刘朝健 Gordon Lau
       林秋楠 Qiunan Lin
       云千千 QianQian Yun
       林嘉华 Dominic Lam
       张坚庭 Alfred Cheung
       骆应钧 Ying Kwan Lok
       李枫 Fung Lee
       欧阳伟豪 Benjamin Au Yeung
       楼南光 Billy Lau
       张文杰 Man Kit Cheung
       胡枫 Fung Woo
       张蔓莎 Sabrina Cheung
       陈海宁 Isabella Chan
       王文成 Man Shing Wong
       叶景文 King-Man Yip
       梁仲恒 Leung Chun Hang
       麦洛新 Lok San Mak
        
       谢高晋 Andrew Tse
       甄子丹 Donnie Yen
       王晶 Jing Wong
       周绰华 Alvin Chow
       王雅琳 Connie Wong
       甄子丹 Donnie Yen
◎标  签 校园 / 行动 / 香港 / 励志 / 青春 / 长大 / 2018 / 中国
◎简  介
  陈侠,一位初出茅庐的教师,他的门生满是品学皆劣的边沿青年,陈侠应用很是讲授的手法,从家访、投其所好、甚至修补大家的家庭关系,化解每位门生的题目,终极把全班门生收服!一切向好之际,陈侠碰到黑道人物鹰哥,为了门生,陈侠跟鹰哥展开一场保护门生前途的终极大战!
  1. ##### MediaInfo ######
  2. General
  3. Unique ID                                : 102213305601398069104044078656805352987 (0x4CE5910C848245042993E4D440CF361B)
  4. Complete name                            : Big.Brother.2018.Bluray.1080p.x265.10bit.DTS.5.1.2Audio-MOMOHD.mkv
  5. Format                                   : Matroska
  6. Format version                           : Version 4
  7. File size                                : 9.18 GiB
  8. Duration                                 : 1 h 41 min
  9. Overall bit rate                         : 13.0 Mb/s
  10. Encoded date                             : UTC 2019-09-15 07:49:23
  11. Writing application                      : mkvmerge v37.0.0 ('Leave It') 64-bit
  12. Writing library                          : libebml v1.3.9 + libmatroska v1.5.2
  13. Video
  14. ID                                       : 1
  15. Format                                   : HEVC
  16. Format/Info                              : High Efficiency Video Coding
  17. Format profile                           : Main [email protected]@High
  18. Codec ID                                 : V_MPEGH/ISO/HEVC
  19. Duration                                 : 1 h 41 min
  20. Bit rate                                 : 10.8 Mb/s
  21. Width                                    : 1 920 pixels
  22. Height                                   : 804 pixels
  23. Display aspect ratio                     : 2.40:1
  24. Frame rate mode                          : Constant
  25. Frame rate                               : 24.000 FPS
  26. Color space                              : YUV
  27. Chroma subsampling                       : 4:2:0
  28. Bit depth                                : 10 bits
  29. Bits/(Pixel*Frame)                       : 0.292
  30. Stream size                              : 7.64 GiB (83%)
  31. Title                                    : [email protected]
  32. Writing library                          : x265 2.0M+9-g457336f+14:[Windows][GCC 5.3.0][64 bit] Yuuki 10bit
  33. Encoding settings                        : wpp / ctu=32 / min-cu-size=8 / max-tu-size=32 / tu-intra-depth=1 / tu-inter-depth=1 / me=3 / subme=7 / merange=24 / rect / no-amp / max-merge=3 / temporal-mvp / no-early-skip / rskip / rdpenalty=2 / no-tskip / no-tskip-fast / no-strong-intra-smoothing / no-lossless / no-cu-lossless / no-constrained-intra / no-fast-intra / no-open-gop / no-temporal-layers / interlace=0 / keyint=480 / min-keyint=1 / NTM4NzU=uuDQuD2mJt9fsCf / scenecut=40 / rc-lookahead=50 / lookahead-slices=4 / bframes=6 / bframe-bias=0 / b-adapt=2 / ref=5 / limit-refs=3 / limit-modes / weightp / weightb / aq-mode=3 / qg-size=32 / aq-strength=0.60 / cbqpoffs=-2 / crqpoffs=-2 / rd=4 / psy-rd=0.90 / rdoq-level=2 / psy-rdoq=3.00 / no-rd-refine / signhide / deblock=-1:-1 / no-sao / no-sao-non-deblock / b-pyramid / no-cutree / no-intra-refresh / rc=crf / crf=18.7000 / qcomp=0.65 / qpmin=0 / qpmax=69 / qpstep=4 / vbv-maxrate=160000 / vbv-bufsize=160000 / crf-max=0.0 / ipratio=1.40 / pbratio=1.20
  34. Language                                 : Chinese
  35. Default                                  : Yes
  36. Forced                                   : No
  37. Audio #1
  38. ID                                       : 2
  39. Format                                   : DTS
  40. Format/Info                              : Digital Theater Systems
  41. Codec ID                                 : A_DTS
  42. Duration                                 : 1 h 41 min
  43. Bit rate mode                            : Constant
  44. Bit rate                                 : 1 510 kb/s
  45. Channel(s)                               : 6 channels
  46. Channel layout                           : C L R Ls Rs LFE
  47. Sampling rate                            : 48.0 kHz
  48. Frame rate                               : 93.750 FPS (512 SPF)
  49. Bit depth                                : 24 bits
  50. Compression mode                         : Lossy
  51. Stream size                              : 1.07 GiB (12%)
  52. Title                                    : 粤语
  53. Language                                 : Chinese
  54. Default                                  : Yes
  55. Forced                                   : No
  56. Audio #2
  57. ID                                       : 3
  58. Format                                   : AC-3
  59. Format/Info                              : Audio Coding 3
  60. Commercial name                          : Dolby Digital
  61. Codec ID                                 : A_AC3
  62. Duration                                 : 1 h 41 min
  63. Bit rate mode                            : Constant
  64. Bit rate                                 : 640 kb/s
  65. Channel(s)                               : 6 channels
  66. Channel layout                           : L R C LFE Ls Rs
  67. Sampling rate                            : 48.0 kHz
  68. Frame rate                               : 31.250 FPS (1536 SPF)
  69. Compression mode                         : Lossy
  70. Stream size                              : 463 MiB (5%)
  71. Title                                    : 国语
  72. Language                                 : Chinese
  73. Service kind                             : Complete Main
  74. Default                                  : No
  75. Forced                                   : No
  76. Text #1
  77. ID                                       : 4
  78. Format                                   : UTF-8
  79. Codec ID                                 : S_TEXT/UTF8
  80. Codec ID/Info                            : UTF-8 Plain Text
  81. Duration                                 : 1 h 35 min
  82. Bit rate                                 : 53 b/s
  83. Count of elements                        : 1507
  84. Stream size                              : 37.2 KiB (0%)
  85. Title                                    : 简中
  86. Language                                 : Chinese
  87. Default                                  : Yes
  88. Forced                                   : No
  89. Text #2
  90. ID                                       : 5
  91. Format                                   : PGS
  92. Muxing mode                              : zlib
  93. Codec ID                                 : S_HDMV/PGS
  94. Codec ID/Info                            : Picture based subtitle format used on BDs/HD-DVDs
  95. Duration                                 : 1 h 35 min
  96. Bit rate                                 : 40.1 kb/s
  97. Count of elements                        : 2916
  98. Stream size                              : 27.3 MiB (0%)
  99. Title                                    : 繁中
  100. Language                                 : Chinese
  101. Default                                  : No
  102. Forced                                   : No
  103. Text #3
  104. ID                                       : 6
  105. Format                                   : PGS
  106. Muxing mode                              : zlib
  107. Codec ID                                 : S_HDMV/PGS
  108. Codec ID/Info                            : Picture based subtitle format used on BDs/HD-DVDs
  109. Duration                                 : 1 h 35 min
  110. Bit rate                                 : 50.0 kb/s
  111. Count of elements                        : 2934
  112. Stream size                              : 34.1 MiB (0%)
  113. Title                                    : 英文
  114. Language                                 : English
  115. Default                                  : No
  116. Forced                                   : No
  117. Menu
  118. 00:00:00.000                             : :绗?01 绔?
  119. 00:08:18.667                             : :绗?02 绔?
  120. 00:17:09.292                             : :绗?03 绔?
  121. 00:25:38.000                             : :绗?04 绔?
  122. 00:33:21.375                             : :绗?05 绔?
  123. 00:40:57.000                             : :绗?06 绔?
  124. 00:48:52.542                             : :绗?07 绔?
  125. 00:57:00.167                             : :绗?08 绔?
  126. 01:05:24.167                             : :绗?09 绔?
  127. 01:15:30.125                             : :绗?10 绔?
  128. 01:22:48.000                             : :绗?11 绔?
  129. 01:32:56.417                             : :绗?12 绔?
复制代码

















保举请利用qBittorrent,utorrent,transmission等标准BT软件下载!以获得最快速度。奉求保种!





回复

使用道具 举报

懒得打字嘛,点击右侧快捷回复 【右侧内容,后台自定义】
您需要登录后才可以回帖 登录 | 立即加入

本版积分规则

Archiver|小黑屋| 蓝光电影网 |网站地图

Copyright © 2021 Comsenz Inc. Powered by 蓝光电影网

蓝光电影网

本站内容由用户自主分享和转载自互联网,转载目的在于传递更多信息,并不代表本网赞同其观点和对其真实性负责。

如有侵权、违反国家法律政策行为,请联系我们,我们会第一时间及时清除和处理!

举报反馈邮箱:[email protected]

快速回复 返回顶部 返回列表