找回密码

蓝光电影网

查看: 138|回复: 0

[剧情] 诺亚方舟漂流记2[粤英多音轨/繁英字幕].OOOPS2.2020.BluRay.1080p.2Audio.TrueHD.5.1.x265.10bit-ALT 9.69GB

[复制链接]
蓝光币
8
发表于 2022-7-27 02:17:07 | 显示全部楼层 |阅读模式


◎译  名 诺亚方舟飘流记2 / 诺亚方舟大冒险 / 反转方舟动物团(港) / Two by Two: Overboard!
◎片  名 Ooops! The Adventure Continues
◎年  代 2020
◎产  地 德国 / 爱尔兰 / 卢森堡
◎类  别 笑剧 / 动画 / 冒险
◎语  言 英语
◎上映日期 2022-04-08(中国大陆) / 2020-09-24(德国)
◎IMDb链接 https://www.imdb.com/title/tt12615474/
◎豆瓣链接 https://movie.douban.com/subject/35210321/
◎片  长 86分钟
◎导  演 托比·格恩科尔 Toby Genkel
       肖恩·麦克科马克 Sean McCormack
◎编  剧 里奇·康罗伊 Richie Conroy
       马克·霍德金森 Mark Hodkinson
◎演  员 德莫特·莫根尼斯 Dermot Magennis
       塔拉·弗林 Tara Flynn
       玛丽·默里 Mary Murray
       艾琳·米森 Aileen Mythen
       保罗·泰来克 Paul Tylak
       卢克·格瑞芬 Luke Griffin
        Tim M?lzer
       简琳·雷哈尔德 Janin Reinhardt
       克里斯蒂安·乌蒙 Christian Ulmen
       艾娃·康纳利 Ava Connolly
◎简  介
  诺亚方舟飘流在海上,数周都看不到陆地,方舟食粮库存在不竭削减,食肉动物和食草动物之间懦弱的战争随时能够被打破。芬妮和莉亚连同船上最初的食品,在一次意外中落入海里。莉亚和新朋友果冻飘到一座岛屿上,而芬妮落入一个被火山威胁的同类部落里。方舟登岛,火山忽然爆发,芬妮联同大师克服了危机后,再次开启新的征程。
  1. ##### MediaInfo ######
  2. General
  3. Unique ID                                : 117824977420965628514447749485364074775 (0x58A443E5890100E75EED6D0FDBC55917)
  4. Complete name                            : OOOPS2.2020.BluRay.1080p.2Audio.TrueHD.5.1.x265.10bit-ALT.mkv
  5. Format                                   : Matroska
  6. Format version                           : Version 4
  7. File size                                : 9.69 GiB
  8. Duration                                 : 1 h 26 min
  9. Overall bit rate mode                    : Variable
  10. Overall bit rate                         : 16.1 Mb/s
  11. Encoded date                             : UTC 2021-12-09 09:17:36
  12. Writing application                      : mkvmerge v49.0.0 ('Sick Of Losing Soulmates') 64-bit
  13. Writing library                          : libebml v1.4.0 + libmatroska v1.6.1
  14. Video
  15. ID                                       : 1
  16. Format                                   : HEVC
  17. Format/Info                              : High Efficiency Video Coding
  18. Format profile                           : Main [email protected]@High
  19. Codec ID                                 : V_MPEGH/ISO/HEVC
  20. Duration                                 : 1 h 26 min
  21. Bit rate                                 : 8 521 kb/s
  22. Width                                    : 1 920 pixels
  23. Height                                   : 1 038 pixels
  24. Display aspect ratio                     : 1.85:1
  25. Frame rate mode                          : Constant
  26. Frame rate                               : 24.000 FPS
  27. Color space                              : YUV
  28. Chroma subsampling                       : 4:2:0
  29. Bit depth                                : 10 bits
  30. Bits/(Pixel*Frame)                       : 0.178
  31. Stream size                              : 5.13 GiB (53%)
  32. Title                                    : HEVC, [email protected]@High, 24 fps @ 8033 kbps
  33. Writing library                          : x265 3.4+14-gd419c7152:[Windows][GCC 10.2.0][64 bit] 10bit
  34. Encoding settings                        : cpuid=538751111039 / frame-threads=4 / numa-pools=20 / wpp / pmode / pme / no-psnr / no-ssim / log-level=2 / input-csp=1 / input-res=1920x1038 / interlace=0 / total-frames=62889 / level-idc=51 / high-tier=1 / uhd-bd=0 / ref=5 / no-allow-non-conformance / no-repeat-headers / annexb / no-aud / no-hrd / info / hash=0 / no-temporal-layers / open-gop / min-keyint=24 / keyint=240 / gop-lookahead=0 / bframes=6 / b-adapt=2 / b-pyramid / bframe-bias=0 / rc-lookahead=40 / lookahead-slices=0 / NTM4NzU=uuDQuD2mJt9fsCf / scenecut=40 / hist-scenecut=0 / radl=0 / no-splice / no-intra-refresh / ctu=32 / min-cu-size=8 / no-rect / no-amp / max-tu-size=32 / tu-inter-depth=3 / tu-intra-depth=3 / limit-tu=4 / rdoq-level=2 / dynamic-rd=0.00 / no-ssim-rd / signhide / no-tskip / nr-intra=0 / nr-inter=0 / no-constrained-intra / no-strong-intra-smoothing / max-merge=4 / limit-refs=1 / limit-modes / me=3 / subme=4 / merange=25 / temporal-mvp / no-frame-dup / no-hme / weightp / weightb / no-analyze-src-pics / deblock=-3:-3 / no-sao / no-sao-non-deblock / rd=6 / selective-sao=0 / no-early-skip / rskip / no-fast-intra / no-tskip-fast / no-cu-lossless / b-intra / no-splitrd-skip / rdpenalty=0 / psy-rd=2.00 / psy-rdoq=1.00 / no-rd-refine / no-lossless / cbqpoffs=0 / crqpoffs=0 / rc=crf / crf=17.0 / qcomp=0.65 / qpstep=4 / stats-write=0 / stats-read=0 / vbv-maxrate=80000 / vbv-bufsize=80000 / vbv-init=0.9 / crf-max=0.0 / crf-min=0.0 / ipratio=1.40 / pbratio=1.30 / aq-mode=2 / aq-strength=0.85 / cutree / zone-count=0 / no-strict-cbr / qg-size=32 / no-rc-grain / qpmax=69 / qpmin=0 / no-const-vbv / sar=1 / overscan=0 / videoformat=5 / range=0 / colorprim=1 / transfer=1 / colormatrix=1 / chromaloc=0 / display-window=0 / cll=0,0 / min-luma=0 / max-luma=1023 / log2-max-poc-lsb=8 / vui-timing-info / vui-hrd-info / slices=1 / no-opt-qp-pps / no-opt-ref-list-length-pps / no-multi-pass-opt-rps / scenecut-bias=0.05 / hist-threshold=0.03 / no-opt-cu-delta-qp / no-aq-motion / no-hdr10 / no-hdr10-opt / no-dhdr10-opt / no-idr-recovery-sei / analysis-reuse-level=0 / analysis-save-reuse-level=0 / analysis-load-reuse-level=0 / scale-factor=0 / refine-intra=0 / refine-inter=0 / refine-mv=1 / refine-ctu-distortion=0 / no-limit-sao / ctu-info=0 / no-lowpass-dct / refine-analysis-type=0 / copy-pic=1 / max-ausize-factor=1.0 / no-dynamic-refine / no-single-sei / no-hevc-aq / no-svt / no-field / qp-adaptation-range=1.00 / no-scenecut-aware-qpconformance-window-offsets / right=0 / bottom=0 / NTM4NzU= / decoder-max-rate=0
  35. Language                                 : English
  36. Default                                  : Yes
  37. Forced                                   : No
  38. Color range                              : Limited
  39. Color primaries                          : BT.709
  40. Transfer characteristics                 : BT.709
  41. Matrix coefficients                      : BT.709
  42. Audio #1
  43. ID                                       : 2
  44. Format                                   : MLP FBA
  45. Format/Info                              : Meridian Lossless Packing FBA
  46. Commercial name                          : Dolby TrueHD
  47. Codec ID                                 : A_TRUEHD
  48. Duration                                 : 1 h 26 min
  49. Bit rate mode                            : Variable
  50. Bit rate                                 : 3 015 kb/s
  51. Maximum bit rate                         : 4 446 kb/s
  52. Channel(s)                               : 6 channels
  53. Channel layout                           : L R C LFE Ls Rs
  54. Sampling rate                            : 96.0 kHz
  55. Frame rate                               : 1 200.000 FPS (80 SPF)
  56. Compression mode                         : Lossless
  57. Stream size                              : 1.81 GiB (19%)
  58. Title                                    : English Dolby TrueHD Audio 5.1 @ 3713 kbps
  59. Language                                 : English
  60. Default                                  : Yes
  61. Forced                                   : No
  62. Audio #2
  63. ID                                       : 3
  64. Format                                   : AC-3
  65. Format/Info                              : Audio Coding 3
  66. Commercial name                          : Dolby Digital
  67. Codec ID                                 : A_AC3
  68. Duration                                 : 1 h 26 min
  69. Bit rate mode                            : Constant
  70. Bit rate                                 : 640 kb/s
  71. Channel(s)                               : 6 channels
  72. Channel layout                           : L R C LFE Ls Rs
  73. Sampling rate                            : 48.0 kHz
  74. Frame rate                               : 31.250 FPS (1536 SPF)
  75. Compression mode                         : Lossy
  76. Stream size                              : 395 MiB (4%)
  77. Title                                    : Cantonese Dolby Digital Audio 5.1 @ 640 kbps
  78. Language                                 : English
  79. Service kind                             : Complete Main
  80. Default                                  : No
  81. Forced                                   : No
  82. Audio #3
  83. ID                                       : 4
  84. Format                                   : MLP FBA
  85. Format/Info                              : Meridian Lossless Packing FBA
  86. Commercial name                          : Dolby TrueHD
  87. Codec ID                                 : A_TRUEHD
  88. Duration                                 : 1 h 26 min
  89. Bit rate mode                            : Variable
  90. Bit rate                                 : 3 073 kb/s
  91. Maximum bit rate                         : 4 410 kb/s
  92. Channel(s)                               : 6 channels
  93. Channel layout                           : L R C LFE Ls Rs
  94. Sampling rate                            : 96.0 kHz
  95. Frame rate                               : 1 200.000 FPS (80 SPF)
  96. Compression mode                         : Lossless
  97. Stream size                              : 1.85 GiB (19%)
  98. Title                                    : Cantonese Dolby TrueHD Audio 2.0 @ 3655 kbps
  99. Language                                 : Chinese
  100. Default                                  : No
  101. Forced                                   : No
  102. Audio #4
  103. ID                                       : 5
  104. Format                                   : AC-3
  105. Format/Info                              : Audio Coding 3
  106. Commercial name                          : Dolby Digital
  107. Codec ID                                 : A_AC3
  108. Duration                                 : 1 h 26 min
  109. Bit rate mode                            : Constant
  110. Bit rate                                 : 640 kb/s
  111. Channel(s)                               : 6 channels
  112. Channel layout                           : L R C LFE Ls Rs
  113. Sampling rate                            : 48.0 kHz
  114. Frame rate                               : 31.250 FPS (1536 SPF)
  115. Compression mode                         : Lossy
  116. Stream size                              : 395 MiB (4%)
  117. Title                                    : Cantonese Dolby Digital Audio 5.1 @ 640 kbps
  118. Language                                 : Chinese
  119. Service kind                             : Complete Main
  120. Default                                  : No
  121. Forced                                   : No
  122. Text #1
  123. ID                                       : 6
  124. Format                                   : PGS
  125. Codec ID                                 : S_HDMV/PGS
  126. Codec ID/Info                            : Picture based subtitle format used on BDs/HD-DVDs
  127. Duration                                 : 1 h 19 min
  128. Bit rate                                 : 31.9 kb/s
  129. Count of elements                        : 1891
  130. Stream size                              : 18.3 MiB (0%)
  131. Title                                    : Cht/SUP  原盘繁体
  132. Language                                 : Chinese
  133. Default                                  : Yes
  134. Forced                                   : No
  135. Text #2
  136. ID                                       : 7
  137. Format                                   : PGS
  138. Codec ID                                 : S_HDMV/PGS
  139. Codec ID/Info                            : Picture based subtitle format used on BDs/HD-DVDs
  140. Duration                                 : 1 h 19 min
  141. Bit rate                                 : 35.9 kb/s
  142. Count of elements                        : 1890
  143. Stream size                              : 20.5 MiB (0%)
  144. Title                                    : Eng/SUP
  145. Language                                 : English
  146. Default                                  : No
  147. Forced                                   : No
  148. Menu
  149. 00:00:00.000                             : en:第 01 章
  150. 00:05:55.583                             : en:第 02 章
  151. 00:10:32.875                             : en:第 03 章
  152. 00:15:12.625                             : en:第 04 章
  153. 00:23:20.000                             : en:第 05 章
  154. 00:32:01.667                             : en:第 06 章
  155. 00:40:02.375                             : en:第 07 章
  156. 00:46:55.208                             : en:第 08 章
  157. 00:52:24.417                             : en:第 09 章
  158. 01:07:20.875                             : en:第 10 章
  159. 01:12:44.375                             : en:第 11 章
  160. 01:20:54.583                             : en:第 12 章
复制代码

















保举请利用qBittorrent,utorrent,transmission等标准BT软件下载!以获得最快速度。奉求保种!





回复

使用道具 举报

懒得打字嘛,点击右侧快捷回复 【右侧内容,后台自定义】
您需要登录后才可以回帖 登录 | 立即加入

本版积分规则

Archiver|小黑屋| 蓝光电影网 |网站地图

Copyright © 2021 Comsenz Inc. Powered by 蓝光电影网

蓝光电影网

本站内容由用户自主分享和转载自互联网,转载目的在于传递更多信息,并不代表本网赞同其观点和对其真实性负责。

如有侵权、违反国家法律政策行为,请联系我们,我们会第一时间及时清除和处理!

举报反馈邮箱:[email protected]

快速回复 返回顶部 返回列表