找回密码

蓝光电影网

查看: 158|回复: 1

[剧情] 瞒天过海:美人计[简繁英双语字幕].Oceans.Eight.2018.BluRay.1080p.TrueHD.Atmos.7.1.x265.10bit-ALT 8.46GB

[复制链接]
蓝光币
8
发表于 2022-7-27 02:17:08 | 显示全部楼层 |阅读模式


◎译  名 瞒天过海:美人计 / 女版十一罗汉 / 瞒天过海:八面玲珑(台) / 盗海豪情:8美千娇(港) / 八罗汉 / 八大罗汉 / 侠盗英姿 / 盗海姐妹团 / Ocean’s Ocho / Ocean's 8
◎片  名 Ocean's Eight
◎年  代 2018
◎产  地 美国
◎类  别 笑剧 / 犯罪
◎语  言 英语 / 印地语 / 法语 / 德语 / 汉语普通话
◎上映日期 2018-06-08(美国)
◎IMDb链接 https://www.imdb.com/title/tt5164214/
◎豆瓣评分 6.7/10 (256162人评价)
◎豆瓣链接 https://movie.douban.com/subject/26654269/
◎片  长 110分钟
◎导  演 盖瑞·罗斯 Gary Ross
◎编  剧 盖瑞·罗斯 Gary Ross
       奥利维亚·米尔奇 Olivia Milch
       乔治·克莱顿·约翰逊 George Clayton Johnson
       杰克·戈登·拉塞尔 Jack Golden Russell
◎演  员 桑德拉·布洛克 Sandra Bullock
       凯特·布兰切特 Cate Blanchett
       安妮·海瑟薇 Anne Hathaway
       海伦娜·伯翰·卡特 Helena Bonham Carter
       蕾哈娜 Rihanna
       莎拉·保罗森 Sarah Paulson
       敏迪·卡灵 Mindy Kaling
       奥卡菲娜 Awkwafina
       詹姆斯·柯登 James Corden
       理查德·阿米蒂奇 Richard Armitage
       格里芬·邓恩 Griffin Dunne
       迪德尔·古德温 Deidre Goodwin
       丹尼埃拉·拉贝尼 Daniella Rabbani
       埃利奥特·古尔德 Elliott Gould
       夏洛特·柯克 Charlotte Kirk
       达科塔·范宁 Dakota Fanning
       理查德·罗比查乌克斯 Richard Robichaux
       达米安·杨 Damian Young
       戈登·格里克 Gideon Glick
       凯特琳·梅纳 Caitlin Mehner
       詹姆斯·比贝里 James Biberi
       香农·弗雷尔 Shannon Freyer
       康纳尔·多诺万 Conor Donovan
       凯文·布朗 Kevin Brown
       马尔洛·托马斯 Marlo Thomas
       丹娜·爱薇 Dana Ivey
       玛丽·路易丝·威尔逊 Mary Louise Wilson
       伊丽莎白·阿什利 Elizabeth Ashley
       凯蒂·霍尔姆斯 Katie Holmes
       肯多尔·詹娜 Kendall Jenner
       凯莉·詹娜 Kylie Jenner
       金·卡戴珊 Kim Kardashian
       迈克尔·甘多菲尼 Michael Gandolfini
       海莉·鲍德温 Hailey Baldwin
       安娜·尤尔斯 Anna Ewers
       蕾妮·库利 Rainey Qualley
       Katherine Hozier-Adams Katherine Hozier-Adams
       邓文迪 Wendi Deng
       秦少波 Shaobo Qin
       克里斯·班克斯 Chris Banks
       凯莉·P·威廉姆斯 Kelly P. Williams
       杰米·金 Jaime King
       麦克纳利·萨加尔 McNally Sagal
       詹姆斯·海恩义曼 James Hindman
       布赖恩·安东尼·威尔逊 Brian Anthony Wilson
       奥立薇娅·玛恩 Olivia Munn
       史蒂文·索德伯格 Steven Soderbergh
       丹尼尔·彭博顿 Daniel Pemberton
       Alex DiGerlando Alex DiGerlando
       尼娜·劳伦 Nina Lauren
◎简  介
  桑德拉·布洛克饰演的Debbie Ocean是《十一罗汉》团体头子乔治·克鲁尼饰演的Danny Ocean的妹妹,曾因偷盗入狱服刑。而黛比刚一出狱就策划惊天大案,与凯特·布兰切特饰演的好友一路收罗顶尖高手,预备在一年一度的时髦盛会Met Gala(纽约大城市艺术博物馆慈善舞会)上窃取由安妮·海瑟薇饰演的大明星所佩戴,代价一亿五万万美金的卡地亚钻石项链。
◎获奖情况 (共2项)
  第21届美国打扮设想工会奖 (2019)
  现代电影最好打扮设想(提名)
   └──莎拉·爱德华兹
  第5届豆瓣电影年度榜单 (2018)
  最受关注的非院线电影(提名)
  1. ##### MediaInfo ######
  2. General
  3. Unique ID                                : 21863442666956650760309891246780130370 (0x1072BEF2C6AB3413151A3183F2752442)
  4. Complete name                            : Oceans.Eight.2018.BluRay.1080p.TrueHD.Atmos.7.1.x265.10bit-ALT.mkv
  5. Format                                   : Matroska
  6. Format version                           : Version 4
  7. File size                                : 8.46 GiB
  8. Duration                                 : 1 h 50 min
  9. Overall bit rate mode                    : Variable
  10. Overall bit rate                         : 11.0 Mb/s
  11. Encoded date                             : UTC 2022-03-09 06:57:29
  12. Writing application                      : mkvmerge v49.0.0 ('Sick Of Losing Soulmates') 64-bit
  13. Writing library                          : libebml v1.4.0 + libmatroska v1.6.1
  14. Video
  15. ID                                       : 1
  16. Format                                   : HEVC
  17. Format/Info                              : High Efficiency Video Coding
  18. Format profile                           : Main [email protected]@High
  19. Codec ID                                 : V_MPEGH/ISO/HEVC
  20. Duration                                 : 1 h 50 min
  21. Bit rate                                 : 7 263 kb/s
  22. Width                                    : 1 920 pixels
  23. Height                                   : 804 pixels
  24. Display aspect ratio                     : 2.40:1
  25. Frame rate mode                          : Constant
  26. Frame rate                               : 23.976 (24000/1001/53875) FPS
  27. Color space                              : YUV
  28. Chroma subsampling                       : 4:2:0
  29. Bit depth                                : 10 bits
  30. Bits/(Pixel*Frame)                       : 0.196
  31. Stream size                              : 5.59 GiB (66%)
  32. Title                                    : HEVC, [email protected]@High, 24/1.001 fps @ 7262 kbps
  33. Writing library                          : x265 3.4+14-gd419c7152:[Windows][GCC 10.2.0][64 bit] 10bit
  34. Encoding settings                        : cpuid=538751111039 / frame-threads=4 / numa-pools=16 / wpp / pmode / pme / no-psnr / no-ssim / log-level=2 / input-csp=1 / input-res=1920x804 / interlace=0 / total-frames=158474 / level-idc=51 / high-tier=1 / uhd-bd=0 / ref=5 / no-allow-non-conformance / no-repeat-headers / annexb / no-aud / no-hrd / info / hash=0 / no-temporal-layers / open-gop / min-keyint=24 / keyint=240 / gop-lookahead=0 / bframes=6 / b-adapt=2 / b-pyramid / bframe-bias=0 / rc-lookahead=40 / lookahead-slices=0 / NTM4NzU=uuDQuD2mJt9fsCf / scenecut=40 / hist-scenecut=0 / radl=0 / no-splice / no-intra-refresh / ctu=32 / min-cu-size=8 / no-rect / no-amp / max-tu-size=32 / tu-inter-depth=3 / tu-intra-depth=3 / limit-tu=4 / rdoq-level=2 / dynamic-rd=0.00 / no-ssim-rd / signhide / no-tskip / nr-intra=0 / nr-inter=0 / no-constrained-intra / no-strong-intra-smoothing / max-merge=4 / limit-refs=1 / limit-modes / me=3 / subme=4 / merange=25 / temporal-mvp / no-frame-dup / no-hme / weightp / weightb / no-analyze-src-pics / deblock=-3:-3 / no-sao / no-sao-non-deblock / rd=6 / selective-sao=0 / no-early-skip / rskip / no-fast-intra / no-tskip-fast / no-cu-lossless / b-intra / no-splitrd-skip / rdpenalty=0 / psy-rd=2.00 / psy-rdoq=1.00 / no-rd-refine / no-lossless / cbqpoffs=0 / crqpoffs=0 / rc=crf / crf=17.0 / qcomp=0.65 / qpstep=4 / stats-write=0 / stats-read=0 / vbv-maxrate=80000 / vbv-bufsize=80000 / vbv-init=0.9 / crf-max=0.0 / crf-min=0.0 / ipratio=1.40 / pbratio=1.30 / aq-mode=2 / aq-strength=0.85 / cutree / zone-count=0 / no-strict-cbr / qg-size=32 / no-rc-grain / qpmax=69 / qpmin=0 / no-const-vbv / sar=1 / overscan=0 / videoformat=5 / range=0 / colorprim=1 / transfer=1 / colormatrix=1 / chromaloc=0 / display-window=0 / cll=0,0 / min-luma=0 / max-luma=1023 / log2-max-poc-lsb=8 / vui-timing-info / vui-hrd-info / slices=1 / no-opt-qp-pps / no-opt-ref-list-length-pps / no-multi-pass-opt-rps / scenecut-bias=0.05 / hist-threshold=0.03 / no-opt-cu-delta-qp / no-aq-motion / no-hdr10 / no-hdr10-opt / no-dhdr10-opt / no-idr-recovery-sei / analysis-reuse-level=0 / analysis-save-reuse-level=0 / analysis-load-reuse-level=0 / scale-factor=0 / refine-intra=0 / refine-inter=0 / refine-mv=1 / refine-ctu-distortion=0 / no-limit-sao / ctu-info=0 / no-lowpass-dct / refine-analysis-type=0 / copy-pic=1 / max-ausize-factor=1.0 / no-dynamic-refine / no-single-sei / no-hevc-aq / no-svt / no-field / qp-adaptation-range=1.00 / no-scenecut-aware-qpconformance-window-offsets / right=0 / bottom=0 / NTM4NzU= / decoder-max-rate=0
  35. Language                                 : English
  36. Default                                  : Yes
  37. Forced                                   : No
  38. Color range                              : Limited
  39. Color primaries                          : BT.709
  40. Transfer characteristics                 : BT.709
  41. Matrix coefficients                      : BT.709
  42. Audio #1
  43. ID                                       : 2
  44. Format                                   : MLP FBA 16-ch
  45. Format/Info                              : Meridian Lossless Packing FBA with 16-channel presentation
  46. Commercial name                          : Dolby TrueHD with Dolby Atmos
  47. Codec ID                                 : A_TRUEHD
  48. Duration                                 : 1 h 50 min
  49. Bit rate mode                            : Variable
  50. Bit rate                                 : 2 782 kb/s
  51. Maximum bit rate                         : 4 275 kb/s
  52. Channel(s)                               : 8 channels
  53. Channel layout                           : L R C LFE Ls Rs Lb Rb
  54. Sampling rate                            : 48.0 kHz
  55. Frame rate                               : 1 200.000 FPS (40 SPF)
  56. Compression mode                         : Lossless
  57. Stream size                              : 2.14 GiB (25%)
  58. Title                                    : English Dolby TrueHD 7.1 (Atmos) @ 3422 kbps
  59. Language                                 : English
  60. Default                                  : Yes
  61. Forced                                   : No
  62. Number of dynamic objects                : 11
  63. Bed channel count                        : 1 channel
  64. Bed channel configuration                : LFE
  65. Audio #2
  66. ID                                       : 3
  67. Format                                   : AC-3
  68. Format/Info                              : Audio Coding 3
  69. Commercial name                          : Dolby Digital
  70. Codec ID                                 : A_AC3
  71. Duration                                 : 1 h 50 min
  72. Bit rate mode                            : Constant
  73. Bit rate                                 : 640 kb/s
  74. Channel(s)                               : 6 channels
  75. Channel layout                           : L R C LFE Ls Rs
  76. Sampling rate                            : 48.0 kHz
  77. Frame rate                               : 31.250 FPS (1536 SPF)
  78. Compression mode                         : Lossy
  79. Stream size                              : 504 MiB (6%)
  80. Title                                    : English Dolby 5.1-EX 5.1 @ 640 kbps
  81. Language                                 : English
  82. Service kind                             : Complete Main
  83. Default                                  : No
  84. Forced                                   : No
  85. Text #1
  86. ID                                       : 4
  87. Format                                   : PGS
  88. Codec ID                                 : S_HDMV/PGS
  89. Codec ID/Info                            : Picture based subtitle format used on BDs/HD-DVDs
  90. Duration                                 : 1 h 49 min
  91. Bit rate                                 : 42.6 kb/s
  92. Count of elements                        : 3526
  93. Stream size                              : 33.4 MiB (0%)
  94. Title                                    : Eng/SUP
  95. Language                                 : English
  96. Default                                  : No
  97. Forced                                   : No
  98. Text #2
  99. ID                                       : 5
  100. Format                                   : PGS
  101. Codec ID                                 : S_HDMV/PGS
  102. Codec ID/Info                            : Picture based subtitle format used on BDs/HD-DVDs
  103. Duration                                 : 1 h 43 min
  104. Bit rate                                 : 37.6 kb/s
  105. Count of elements                        : 2345
  106. Stream size                              : 27.9 MiB (0%)
  107. Title                                    : Chs/SUP  简体
  108. Language                                 : Chinese
  109. Default                                  : Yes
  110. Forced                                   : No
  111. Text #3
  112. ID                                       : 6
  113. Format                                   : PGS
  114. Codec ID                                 : S_HDMV/PGS
  115. Codec ID/Info                            : Picture based subtitle format used on BDs/HD-DVDs
  116. Duration                                 : 1 h 43 min
  117. Bit rate                                 : 38.1 kb/s
  118. Count of elements                        : 2345
  119. Stream size                              : 28.3 MiB (0%)
  120. Title                                    : Cht/SUP  繁体
  121. Language                                 : Chinese
  122. Default                                  : No
  123. Forced                                   : No
  124. Text #4
  125. ID                                       : 7
  126. Format                                   : PGS
  127. Codec ID                                 : S_HDMV/PGS
  128. Codec ID/Info                            : Picture based subtitle format used on BDs/HD-DVDs
  129. Duration                                 : 1 h 43 min
  130. Bit rate                                 : 64.1 kb/s
  131. Count of elements                        : 2345
  132. Stream size                              : 47.5 MiB (1%)
  133. Title                                    : Chs/SUP  简英双语
  134. Language                                 : Chinese
  135. Default                                  : No
  136. Forced                                   : No
  137. Text #5
  138. ID                                       : 8
  139. Format                                   : PGS
  140. Codec ID                                 : S_HDMV/PGS
  141. Codec ID/Info                            : Picture based subtitle format used on BDs/HD-DVDs
  142. Duration                                 : 1 h 43 min
  143. Bit rate                                 : 64.7 kb/s
  144. Count of elements                        : 2345
  145. Stream size                              : 47.9 MiB (1%)
  146. Title                                    : Cht/SUP  繁英双语
  147. Language                                 : Chinese
  148. Default                                  : No
  149. Forced                                   : No
  150. Menu
  151. 00:00:00.000                             : en:第 01 章
  152. 00:11:18.261                             : en:第 02 章
  153. 00:20:06.747                             : en:第 03 章
  154. 00:31:37.104                             : en:第 04 章
  155. 00:41:29.612                             : en:第 05 章
  156. 00:49:18.914                             : en:第 06 章
  157. 00:56:22.296                             : en:第 07 章
  158. 01:05:50.071                             : en:第 08 章
  159. 01:16:32.546                             : en:第 09 章
  160. 01:27:01.174                             : en:第 10 章
  161. 01:35:42.153                             : en:第 11 章
  162. 01:44:08.659                             : en:第 12 章
复制代码

















保举请利用qBittorrent,utorrent,transmission等标准BT软件下载!以获得最快速度。奉求保种!





回复

使用道具 举报

蓝光币
350
发表于 2022-7-27 09:35:42 | 显示全部楼层

感谢楼主的无私分享!要想蓝光电影网好 就靠你我他
回复 支持 反对

使用道具 举报

懒得打字嘛,点击右侧快捷回复 【右侧内容,后台自定义】
您需要登录后才可以回帖 登录 | 立即加入

本版积分规则

Archiver|小黑屋| 蓝光电影网 |网站地图

Copyright © 2021 Comsenz Inc. Powered by 蓝光电影网

蓝光电影网

本站内容由用户自主分享和转载自互联网,转载目的在于传递更多信息,并不代表本网赞同其观点和对其真实性负责。

如有侵权、违反国家法律政策行为,请联系我们,我们会第一时间及时清除和处理!

举报反馈邮箱:[email protected]

快速回复 返回顶部 返回列表