找回密码

蓝光电影网

查看: 154|回复: 1

[剧情] 诺丁山[国英多音轨/简繁英双语字幕].Notting.Hill.1999.BluRay.1080p.2Audio.DTS-HD.MA5.1.x265.10bit-ALT 9.60GB

[复制链接]
蓝光币
8
发表于 2022-7-27 02:17:12 | 显示全部楼层 |阅读模式


◎译  名 诺丁山 / 摘星奇缘(港) / 新娘百分百(台)
◎片  名 Notting Hill
◎年  代 1999
◎产  地 英国 / 美国
◎类  别 笑剧 / 恋爱
◎语  言 英语 / 西班牙语
◎上映日期 1999-05-21(英国)
◎IMDb链接 https://www.imdb.com/title/tt0125439/
◎豆瓣评分 8.0/10 (335380人评价)
◎豆瓣链接 https://movie.douban.com/subject/1298038/
◎片  长 124分钟
◎导  演 罗杰·米歇尔 Roger Michell
◎编  剧 理查德·柯蒂斯 Richard Curtis
◎演  员 朱莉娅·罗伯茨 Julia Roberts
       休·格兰特 Hugh Grant
       理查德·麦凯布 Richard McCabe
       瑞斯·伊凡斯 Rhys Ifans
       詹姆斯·德雷福斯 James Dreyfus
       迪兰·莫兰 Dylan Moran
       亨利·古德曼 Henry Goodman
       朱利安·林希德-图特 Julian Rhind-Tutt
       罗蕾莱·金 Lorelei King
       约翰·斯拉普内尔 John Shrapnel
       克拉克·彼得斯 Clarke Peters
       尤兰达·瓦兹奎兹 Yolanda Vazquez
       米莎·巴顿 Mischa Barton
       蒂姆·麦克纳尼 Tim McInnerny
       吉娜·麦基 Gina McKee
       艾玛·钱伯斯 Emma Chambers
       休·博纳维尔 Hugh Bonneville
       多里斯·洛夫 Dorian Lough
       桑吉夫·巴哈斯卡 Sanjeev Bhaskar
       保罗·查希迪 Paul Chahidi
       艾米莉·莫迪默 Emily Mortimer
       萨缪尔·韦斯特 Samuel West
       帕特里克·巴罗 Patrick Barlow
       安迪·德拉图尔 Andy de la Tour
       鲁伯特·普格特 Rupert Procter
       安·比奇 Ann Beach
       莎莉·菲利普斯 Sally Phillips
       亚历克·鲍德温 Alec Baldwin
       伊恩·博霍 Ian Boo Khoo
       西蒙·卡洛 Simon Callow
       乔·考尼什 Joe Cornish
       肖恩·克罗宁 Sean Cronin
       欧米德·吉亚李利 Omid Djalili
       迈克尔·希格斯 Michael Higgs
       若昂·科斯塔·梅内塞斯 Jo?o Costa Menezes
       马修·莫迪恩 Matthew Modine
       童自荣 Zirong Tong
       户田惠子 Keiko Toda
       沈晓谦 Xiaoqian Shen
       阿图罗·韦尼加斯 Arturo Venegas
       蒂姆·贝文 Tim Bevan
       埃里克·菲尔纳 Eric Fellner
       邓肯·肯沃西 Duncan Kenworthy
       迈克尔·库尔特 Michael Coulter
       尼克·摩尔 Nick Moore
       斯图尔特·克莱格 Stuart Craig
       David Allday David Allday
       约翰·金 John King
       安德鲁·阿克兰-斯诺 Andrew Ackland-Snow
       斯蒂芬妮·麦克米兰 Stephenie McMillan
       舒娜·哈尔伍德 Shuna Harwood
       珍妮·希尔科尔 Jenny Shircore
       伊丽莎白·雅尼-乔治乌 Elizabeth Yianni-Georgiou
       诺玛·韦伯 Norma Webb
       林戴尔·奎尤 Lyndell Quiyou
       丹·格拉斯 Dan Glass
       蒂莫西·韦伯尔 Timothy Webber
       Pedro Sabrosa Pedro Sabrosa
       Fiona Walkinshaw Fiona Walkinshaw
◎简  介
  著名影星安娜斯各特(茱莉亚罗伯茨 饰)的演艺奇迹方兴未艾。一天她来到了诺丁山的一间书店,相逢了奇迹恋爱两失意的老板威廉萨克(休格朗特 饰)。威廉认出了安娜是红极一时的明星,非常惊奇,也没想到自己会爱上这位明星,假扮记者托故约会安娜。很快两人坠入爱河,原本甜蜜的生活却一会儿被发现了的记者破坏了。安娜承受着媒体的压力,需要做出决议,两人也吵了起来……
◎获奖情况 (共5项)
  第57届金球奖 (2000)
  电影类 音乐/笑剧片最好男配角(提名)
   └──休·格兰特
  电影类 音乐/笑剧片最好女配角(提名)
   └──朱莉娅·罗伯茨
  第53届英国电影学院奖 (2000)
  电影奖 最好英国影片(提名)
  电影奖 最好男配角(提名)
   └──瑞斯·伊凡斯
  电影奖 观众挑选奖
  1. ##### MediaInfo ######
  2. General
  3. Unique ID                                : 16575877177675304144215766521238535117 (0xC7865D79A7935AA8FEB2727B6183BCD)
  4. Complete name                            : Notting.Hill.1999.BluRay.1080p.2Audio.DTS-HD.MA5.1.x265.10bit-ALT.mkv
  5. Format                                   : Matroska
  6. Format version                           : Version 4
  7. File size                                : 9.60 GiB
  8. Duration                                 : 2 h 4 min
  9. Overall bit rate mode                    : Variable
  10. Overall bit rate                         : 11.1 Mb/s
  11. Encoded date                             : UTC 2022-05-27 00:47:58
  12. Writing application                      : mkvmerge v49.0.0 ('Sick Of Losing Soulmates') 64-bit
  13. Writing library                          : libebml v1.4.0 + libmatroska v1.6.1
  14. Video
  15. ID                                       : 1
  16. Format                                   : HEVC
  17. Format/Info                              : High Efficiency Video Coding
  18. Format profile                           : Main [email protected]@High
  19. Codec ID                                 : V_MPEGH/ISO/HEVC
  20. Duration                                 : 2 h 3 min
  21. Bit rate                                 : 7 204 kb/s
  22. Width                                    : 1 920 pixels
  23. Height                                   : 814 pixels
  24. Display aspect ratio                     : 2.35:1
  25. Frame rate mode                          : Constant
  26. Frame rate                               : 23.976 (24000/1001/53875) FPS
  27. Color space                              : YUV
  28. Chroma subsampling                       : 4:2:0
  29. Bit depth                                : 10 bits
  30. Bits/(Pixel*Frame)                       : 0.192
  31. Stream size                              : 6.24 GiB (65%)
  32. Title                                    : HEVC, [email protected]@High, 24/1.001 fps @ 7204 kbps
  33. Writing library                          : x265 3.5+36-1f2c8da77:[Windows][GCC 11.2.0][64 bit] 10bit
  34. Encoding settings                        : cpuid=538751111039 / frame-threads=4 / numa-pools=16 / wpp / no-pmode / no-pme / no-psnr / no-ssim / log-level=2 / input-csp=1 / input-res=1920x814 / interlace=0 / total-frames=178320 / level-idc=51 / high-tier=1 / uhd-bd=0 / ref=5 / no-allow-non-conformance / no-repeat-headers / annexb / no-aud / no-eob / no-eos / no-hrd / info / hash=0 / no-temporal-layers / open-gop / min-keyint=24 / keyint=240 / gop-lookahead=0 / bframes=6 / b-adapt=2 / b-pyramid / bframe-bias=0 / rc-lookahead=40 / lookahead-slices=0 / NTM4NzU=uuDQuD2mJt9fsCf / scenecut=40 / no-hist-scenecut / radl=0 / no-splice / no-intra-refresh / ctu=32 / min-cu-size=8 / no-rect / no-amp / max-tu-size=32 / tu-inter-depth=3 / tu-intra-depth=3 / limit-tu=4 / rdoq-level=2 / dynamic-rd=0.00 / no-ssim-rd / signhide / no-tskip / nr-intra=0 / nr-inter=0 / no-constrained-intra / no-strong-intra-smoothing / max-merge=4 / limit-refs=1 / limit-modes / me=3 / subme=4 / merange=25 / temporal-mvp / no-frame-dup / no-hme / weightp / weightb / no-analyze-src-pics / deblock=-3:-3 / no-sao / no-sao-non-deblock / rd=6 / selective-sao=0 / no-early-skip / rskip / no-fast-intra / no-tskip-fast / no-cu-lossless / b-intra / no-splitrd-skip / rdpenalty=0 / psy-rd=2.00 / psy-rdoq=1.00 / no-rd-refine / no-lossless / cbqpoffs=-2 / crqpoffs=-2 / rc=crf / crf=17.0 / qcomp=0.65 / qpstep=4 / stats-write=0 / stats-read=0 / vbv-maxrate=80000 / vbv-bufsize=80000 / vbv-init=0.9 / min-vbv-fullness=50.0 / max-vbv-fullness=80.0 / crf-max=0.0 / crf-min=0.0 / ipratio=1.40 / pbratio=1.30 / aq-mode=2 / aq-strength=0.85 / cutree / zone-count=0 / no-strict-cbr / qg-size=32 / no-rc-grain / qpmax=69 / qpmin=0 / no-const-vbv / sar=1 / overscan=0 / videoformat=5 / range=0 / colorprim=1 / transfer=1 / colormatrix=1 / chromaloc=0 / display-window=0 / cll=0,0 / min-luma=0 / max-luma=1023 / log2-max-poc-lsb=8 / vui-timing-info / vui-hrd-info / slices=1 / no-opt-qp-pps / no-opt-ref-list-length-pps / no-multi-pass-opt-rps / scenecut-bias=0.05 / hist-threshold=0.03 / no-opt-cu-delta-qp / no-aq-motion / no-hdr10 / no-hdr10-opt / no-dhdr10-opt / no-idr-recovery-sei / analysis-reuse-level=0 / analysis-save-reuse-level=0 / analysis-load-reuse-level=0 / scale-factor=0 / refine-intra=0 / refine-inter=0 / refine-mv=1 / refine-ctu-distortion=0 / no-limit-sao / ctu-info=0 / no-lowpass-dct / refine-analysis-type=0 / copy-pic=1 / max-ausize-factor=1.0 / no-dynamic-refine / no-single-sei / no-hevc-aq / no-svt / no-field / qp-adaptation-range=1.00 / scenecut-aware-qp=0conformance-window-offsets / right=0 / bottom=0 / NTM4NzU= / decoder-max-rate=0 / no-vbv-live-multi-pass
  35. Language                                 : English
  36. Default                                  : Yes
  37. Forced                                   : No
  38. Color range                              : Limited
  39. Color primaries                          : BT.709
  40. Transfer characteristics                 : BT.709
  41. Matrix coefficients                      : BT.709
  42. Audio #1
  43. ID                                       : 2
  44. Format                                   : DTS XLL
  45. Format/Info                              : Digital Theater Systems
  46. Commercial name                          : DTS-HD Master Audio
  47. Codec ID                                 : A_DTS
  48. Duration                                 : 2 h 3 min
  49. Bit rate mode                            : Variable
  50. Bit rate                                 : 2 788 kb/s
  51. Channel(s)                               : 6 channels
  52. Channel layout                           : C L R Ls Rs LFE
  53. Sampling rate                            : 48.0 kHz
  54. Frame rate                               : 93.750 FPS (512 SPF)
  55. Bit depth                                : 24 bits
  56. Compression mode                         : Lossless
  57. Stream size                              : 2.41 GiB (25%)
  58. Title                                    : English DTS-HD Master Audio 5.1 @ 2788 kbps
  59. Language                                 : English
  60. Default                                  : Yes
  61. Forced                                   : No
  62. Audio #2
  63. ID                                       : 3
  64. Format                                   : AC-3
  65. Format/Info                              : Audio Coding 3
  66. Commercial name                          : Dolby Digital
  67. Codec ID                                 : A_AC3
  68. Duration                                 : 2 h 4 min
  69. Bit rate mode                            : Constant
  70. Bit rate                                 : 224 kb/s
  71. Channel(s)                               : 2 channels
  72. Channel layout                           : L R
  73. Sampling rate                            : 48.0 kHz
  74. Frame rate                               : 31.250 FPS (1536 SPF)
  75. Compression mode                         : Lossy
  76. Stream size                              : 199 MiB (2%)
  77. Title                                    : Mandarin Dolby Digital Audio 2.0 @ 224 kbps
  78. Language                                 : Chinese
  79. Service kind                             : Complete Main
  80. Default                                  : No
  81. Forced                                   : No
  82. Audio #3
  83. ID                                       : 4
  84. Format                                   : AC-3
  85. Format/Info                              : Audio Coding 3
  86. Commercial name                          : Dolby Digital
  87. Codec ID                                 : A_AC3
  88. Duration                                 : 2 h 3 min
  89. Bit rate mode                            : Constant
  90. Bit rate                                 : 384 kb/s
  91. Channel(s)                               : 6 channels
  92. Channel layout                           : L R C LFE Ls Rs
  93. Sampling rate                            : 48.0 kHz
  94. Frame rate                               : 31.250 FPS (1536 SPF)
  95. Compression mode                         : Lossy
  96. Stream size                              : 340 MiB (3%)
  97. Title                                    : Mandarin Dolby Digital Audio 5.1 @ 384 kbps
  98. Language                                 : Chinese
  99. Service kind                             : Complete Main
  100. Default                                  : No
  101. Forced                                   : No
  102. Text #1
  103. ID                                       : 5
  104. Format                                   : PGS
  105. Codec ID                                 : S_HDMV/PGS
  106. Codec ID/Info                            : Picture based subtitle format used on BDs/HD-DVDs
  107. Duration                                 : 2 h 1 min
  108. Bit rate                                 : 38.3 kb/s
  109. Count of elements                        : 3066
  110. Stream size                              : 33.3 MiB (0%)
  111. Title                                    : Eng/SUP
  112. Language                                 : English
  113. Default                                  : No
  114. Forced                                   : No
  115. Text #2
  116. ID                                       : 6
  117. Format                                   : PGS
  118. Codec ID                                 : S_HDMV/PGS
  119. Codec ID/Info                            : Picture based subtitle format used on BDs/HD-DVDs
  120. Duration                                 : 1 h 57 min
  121. Bit rate                                 : 26.5 kb/s
  122. Count of elements                        : 2880
  123. Stream size                              : 22.3 MiB (0%)
  124. Title                                    : Cht/SUP  原盘繁体
  125. Language                                 : Chinese
  126. Default                                  : No
  127. Forced                                   : No
  128. Text #3
  129. ID                                       : 7
  130. Format                                   : PGS
  131. Codec ID                                 : S_HDMV/PGS
  132. Codec ID/Info                            : Picture based subtitle format used on BDs/HD-DVDs
  133. Duration                                 : 1 h 57 min
  134. Bit rate                                 : 29.1 kb/s
  135. Count of elements                        : 2880
  136. Stream size                              : 24.4 MiB (0%)
  137. Title                                    : Cht/SUP  原盘繁体
  138. Language                                 : Chinese
  139. Default                                  : No
  140. Forced                                   : No
  141. Text #4
  142. ID                                       : 8
  143. Format                                   : PGS
  144. Codec ID                                 : S_HDMV/PGS
  145. Codec ID/Info                            : Picture based subtitle format used on BDs/HD-DVDs
  146. Duration                                 : 2 h 1 min
  147. Bit rate                                 : 122 kb/s
  148. Count of elements                        : 6549
  149. Stream size                              : 106 MiB (1%)
  150. Title                                    : Chs/SUP  简体
  151. Language                                 : Chinese
  152. Default                                  : Yes
  153. Forced                                   : No
  154. Text #5
  155. ID                                       : 9
  156. Format                                   : PGS
  157. Codec ID                                 : S_HDMV/PGS
  158. Codec ID/Info                            : Picture based subtitle format used on BDs/HD-DVDs
  159. Duration                                 : 2 h 1 min
  160. Bit rate                                 : 185 kb/s
  161. Count of elements                        : 6548
  162. Stream size                              : 161 MiB (2%)
  163. Title                                    : Chs/SUP  简英双语
  164. Language                                 : Chinese
  165. Default                                  : No
  166. Forced                                   : No
  167. Text #6
  168. ID                                       : 10
  169. Format                                   : PGS
  170. Codec ID                                 : S_HDMV/PGS
  171. Codec ID/Info                            : Picture based subtitle format used on BDs/HD-DVDs
  172. Duration                                 : 2 h 2 min
  173. Bit rate                                 : 86.9 kb/s
  174. Count of elements                        : 3154
  175. Stream size                              : 75.9 MiB (1%)
  176. Title                                    : Cht/SUP  繁体  Commentary
  177. Language                                 : Chinese
  178. Default                                  : No
  179. Forced                                   : No
  180. Menu
  181. 00:00:00.000                             : en:第 01 章
  182. 00:02:25.562                             : en:第 02 章
  183. 00:11:05.248                             : en:第 03 章
  184. 00:23:07.970                             : en:第 04 章
  185. 00:32:54.764                             : en:第 05 章
  186. 00:50:08.255                             : en:第 06 章
  187. 00:54:41.778                             : en:第 07 章
  188. 00:57:17.017                             : en:第 08 章
  189. 01:06:28.902                             : en:第 09 章
  190. 01:18:05.431                             : en:第 10 章
  191. 01:21:33.180                             : en:第 11 章
  192. 01:28:04.946                             : en:第 12 章
  193. 01:34:25.201                             : en:第 13 章
  194. 01:39:15.533                             : en:第 14 章
  195. 01:47:00.164                             : en:第 15 章
  196. 01:53:28.760                             : en:第 16 章
  197. 01:56:51.213                             : en:第 17 章
  198. 01:59:56.439                             : en:第 18 章
复制代码

















保举请利用qBittorrent,utorrent,transmission等标准BT软件下载!以获得最快速度。奉求保种!





回复

使用道具 举报

蓝光币
582
发表于 2022-7-27 18:18:36 | 显示全部楼层
谢谢分享!!!!!
回复

使用道具 举报

懒得打字嘛,点击右侧快捷回复 【右侧内容,后台自定义】
您需要登录后才可以回帖 登录 | 立即加入

本版积分规则

Archiver|小黑屋| 蓝光电影网 |网站地图

Copyright © 2021 Comsenz Inc. Powered by 蓝光电影网

蓝光电影网

本站内容由用户自主分享和转载自互联网,转载目的在于传递更多信息,并不代表本网赞同其观点和对其真实性负责。

如有侵权、违反国家法律政策行为,请联系我们,我们会第一时间及时清除和处理!

举报反馈邮箱:[email protected]

快速回复 返回顶部 返回列表