找回密码

蓝光电影网

查看: 215|回复: 1

[剧情] 挪威的森林[简繁字幕].Norwegian.Wood.2010.BluRay.1080p.DTS-HD.MA5.1.x265.10bit-ALT 10.90GB

[复制链接]
蓝光币
8
发表于 2022-7-27 02:17:13 | 显示全部楼层 |阅读模式


◎译  名 挪威的森林 / 挪威森林 / Noruwei no mori / Norwegian Wood
◎片  名 ノルウェイの森
◎年  代 2010
◎产  地 日本
◎类  别 剧情 / 恋爱
◎语  言 日语
◎上映日期 2011-09-16(中国大陆) / 2010-12-11(日本)
◎IMDb链接 https://www.imdb.com/title/tt1270842/
◎豆瓣评分 6.0/10 (120083人评价)
◎豆瓣链接 https://movie.douban.com/subject/3168086/
◎片  长 133分钟(日本)
◎导  演 陈豪杰 Anh Hung Tran
◎编  剧 陈豪杰 Anh Hung Tran
       村上春树 Haruki Murakami
◎演  员 松山研一 Ken'ichi Matsuyama
       菊地凛子 Rinko Kikuchi
       水原希子 Kiko Mizuhara
       高良健吾 Kengo Kora
       玉山铁二 Tetsuji Tamayama
       雾岛丽香 Reika Kirishima
       初音映莉子 Eriko Hatsune
       饭田孝男 Takao Handa
       筱原真衣 Mai Shinohara
       高桥幸宏 Yukihiro Takahashi
       細野晴臣 Haruomi Hosono
       强尼·格林伍德 Jonny Greenwood
       李屏宾 Mark Lee Ping Bing
       约夫·摩尔 Yov Moor
       Norifumi Ataka Norifumi Ataka
       陈女燕溪 Tran Nu Yên-Khê
◎简  介
  木月自杀以后,留给已经青梅竹马的情人直子(菊地凛子 饰)以及他们的好朋友渡边(松山健一 饰)没法弥合的伤痛。为了忘记已经伤痛的记忆,渡边挑选了前往东京肄业。在新的情况中,渡边几近忘记曩昔的一切,直到某天与直子偶遇。在他们配合的记忆里,木月是不成能躲避的话题,但他们却像约好了一样谁也没有提起这小我。直子20岁的生日,屋外霪雨霏霏,屋内直子与渡边温存一夜。直子搬场了,她又一次从渡边的生活中消失,渡边的生活似乎又一次规复安静,但他的心里却满怀危险直子的惭愧,直到渡边收到直子的信。渡边熟悉了开畅热情的女同学绿子(水原希子 饰),两人很快坠入爱河,但在渡边的心里,永久有一个位置属于直子……                                    
                                影片改编自村上春树的著名小说《挪威的森林》,从开拍伊始,便倍受关注。
◎获奖情况 (共6项)
  第67届威尼斯电影节 (2010)
  金狮奖(提名)
   └──陈豪杰
  第5届亚洲电影大奖 (2011)
  我最爱好的男女配角 我最爱好的女配角(提名)
   └──菊地凛子
  最好女配角(提名)
   └──菊地凛子
  最好摄影
   └──李屏宾
  最好外型设想(提名)
  第2届豆瓣电影鑫像奖 (2012)
  豆渣单元 最渣影片(外语)(提名)
  1. ##### MediaInfo ######
  2. General
  3. Unique ID                                : 262843282937752336957212438444609216849 (0xC5BDC661C0AABEE01F3ACE3F5665A151)
  4. Complete name                            : Norwegian.Wood.2010.BluRay.1080p.DTS-HD.MA5.1.x265.10bit-ALT.mkv
  5. Format                                   : Matroska
  6. Format version                           : Version 4
  7. File size                                : 10.9 GiB
  8. Duration                                 : 2 h 13 min
  9. Overall bit rate mode                    : Variable
  10. Overall bit rate                         : 11.7 Mb/s
  11. Encoded date                             : UTC 2021-12-03 03:59:32
  12. Writing application                      : mkvmerge v49.0.0 ('Sick Of Losing Soulmates') 64-bit
  13. Writing library                          : libebml v1.4.0 + libmatroska v1.6.1
  14. Video
  15. ID                                       : 1
  16. Format                                   : HEVC
  17. Format/Info                              : High Efficiency Video Coding
  18. Format profile                           : Main [email protected]@High
  19. Codec ID                                 : V_MPEGH/ISO/HEVC
  20. Duration                                 : 2 h 13 min
  21. Bit rate                                 : 8 328 kb/s
  22. Width                                    : 1 920 pixels
  23. Height                                   : 804 pixels
  24. Display aspect ratio                     : 2.40:1
  25. Frame rate mode                          : Constant
  26. Frame rate                               : 23.976 (24000/1001/53875) FPS
  27. Color space                              : YUV
  28. Chroma subsampling                       : 4:2:0
  29. Bit depth                                : 10 bits
  30. Bits/(Pixel*Frame)                       : 0.225
  31. Stream size                              : 7.77 GiB (71%)
  32. Title                                    : HEVC, [email protected]@High, 24/1.001 fps @ 8328 kbps
  33. Writing library                          : x265 3.4+14-gd419c7152:[Windows][GCC 10.2.0][64 bit] 10bit
  34. Encoding settings                        : cpuid=538751111039 / frame-threads=4 / numa-pools=16 / wpp / pmode / pme / no-psnr / no-ssim / log-level=2 / input-csp=1 / input-res=1920x804 / interlace=0 / total-frames=192232 / level-idc=51 / high-tier=1 / uhd-bd=0 / ref=5 / no-allow-non-conformance / no-repeat-headers / annexb / no-aud / no-hrd / info / hash=0 / no-temporal-layers / open-gop / min-keyint=24 / keyint=240 / gop-lookahead=0 / bframes=6 / b-adapt=2 / b-pyramid / bframe-bias=0 / rc-lookahead=40 / lookahead-slices=0 / NTM4NzU=uuDQuD2mJt9fsCf / scenecut=40 / hist-scenecut=0 / radl=0 / no-splice / no-intra-refresh / ctu=32 / min-cu-size=8 / no-rect / no-amp / max-tu-size=32 / tu-inter-depth=3 / tu-intra-depth=3 / limit-tu=4 / rdoq-level=2 / dynamic-rd=0.00 / no-ssim-rd / signhide / no-tskip / nr-intra=0 / nr-inter=0 / no-constrained-intra / no-strong-intra-smoothing / max-merge=4 / limit-refs=1 / limit-modes / me=3 / subme=4 / merange=25 / temporal-mvp / no-frame-dup / no-hme / weightp / weightb / no-analyze-src-pics / deblock=-3:-3 / no-sao / no-sao-non-deblock / rd=6 / selective-sao=0 / no-early-skip / rskip / no-fast-intra / no-tskip-fast / no-cu-lossless / b-intra / no-splitrd-skip / rdpenalty=0 / psy-rd=2.00 / psy-rdoq=1.00 / no-rd-refine / no-lossless / cbqpoffs=0 / crqpoffs=0 / rc=crf / crf=19.5 / qcomp=0.65 / qpstep=4 / stats-write=0 / stats-read=0 / vbv-maxrate=80000 / vbv-bufsize=80000 / vbv-init=0.9 / crf-max=0.0 / crf-min=0.0 / ipratio=1.40 / pbratio=1.30 / aq-mode=2 / aq-strength=0.85 / cutree / zone-count=0 / no-strict-cbr / qg-size=32 / no-rc-grain / qpmax=69 / qpmin=0 / no-const-vbv / sar=1 / overscan=0 / videoformat=5 / range=0 / colorprim=1 / transfer=1 / colormatrix=1 / chromaloc=0 / display-window=0 / cll=0,0 / min-luma=0 / max-luma=1023 / log2-max-poc-lsb=8 / vui-timing-info / vui-hrd-info / slices=1 / no-opt-qp-pps / no-opt-ref-list-length-pps / no-multi-pass-opt-rps / scenecut-bias=0.05 / hist-threshold=0.03 / no-opt-cu-delta-qp / no-aq-motion / no-hdr10 / no-hdr10-opt / no-dhdr10-opt / no-idr-recovery-sei / analysis-reuse-level=0 / analysis-save-reuse-level=0 / analysis-load-reuse-level=0 / scale-factor=0 / refine-intra=0 / refine-inter=0 / refine-mv=1 / refine-ctu-distortion=0 / no-limit-sao / ctu-info=0 / no-lowpass-dct / refine-analysis-type=0 / copy-pic=1 / max-ausize-factor=1.0 / no-dynamic-refine / no-single-sei / no-hevc-aq / no-svt / no-field / qp-adaptation-range=1.00 / no-scenecut-aware-qpconformance-window-offsets / right=0 / bottom=0 / NTM4NzU= / decoder-max-rate=0
  35. Language                                 : English
  36. Default                                  : Yes
  37. Forced                                   : No
  38. Color range                              : Limited
  39. Color primaries                          : BT.709
  40. Transfer characteristics                 : BT.709
  41. Matrix coefficients                      : BT.709
  42. Audio
  43. ID                                       : 2
  44. Format                                   : DTS XLL
  45. Format/Info                              : Digital Theater Systems
  46. Commercial name                          : DTS-HD Master Audio
  47. Codec ID                                 : A_DTS
  48. Duration                                 : 2 h 13 min
  49. Bit rate mode                            : Variable
  50. Bit rate                                 : 3 326 kb/s
  51. Channel(s)                               : 6 channels
  52. Channel layout                           : C L R Ls Rs LFE
  53. Sampling rate                            : 48.0 kHz
  54. Frame rate                               : 93.750 FPS (512 SPF)
  55. Bit depth                                : 24 bits
  56. Compression mode                         : Lossless
  57. Stream size                              : 3.10 GiB (28%)
  58. Title                                    : Japanese DTS-HD Master Audio 5.1 @ 3326 kbps
  59. Language                                 : Japanese
  60. Default                                  : Yes
  61. Forced                                   : No
  62. Text #1
  63. ID                                       : 3
  64. Format                                   : PGS
  65. Codec ID                                 : S_HDMV/PGS
  66. Codec ID/Info                            : Picture based subtitle format used on BDs/HD-DVDs
  67. Duration                                 : 2 h 6 min
  68. Bit rate                                 : 9 262 b/s
  69. Count of elements                        : 1619
  70. Stream size                              : 8.38 MiB (0%)
  71. Title                                    : Chs/SUP  简体
  72. Language                                 : Chinese
  73. Default                                  : Yes
  74. Forced                                   : No
  75. Text #2
  76. ID                                       : 4
  77. Format                                   : PGS
  78. Codec ID                                 : S_HDMV/PGS
  79. Codec ID/Info                            : Picture based subtitle format used on BDs/HD-DVDs
  80. Duration                                 : 2 h 6 min
  81. Bit rate                                 : 12.4 kb/s
  82. Count of elements                        : 1619
  83. Stream size                              : 11.3 MiB (0%)
  84. Title                                    : Cht/SUP  繁体
  85. Language                                 : Chinese
  86. Default                                  : No
  87. Forced                                   : No
  88. Menu
  89. 00:00:00.000                             : en:第 01 章
  90. 00:11:17.301                             : en:第 02 章
  91. 00:23:03.382                             : en:第 03 章
  92. 00:35:05.103                             : en:第 04 章
  93. 00:44:00.637                             : en:第 05 章
  94. 00:54:56.835                             : en:第 06 章
  95. 01:07:49.356                             : en:第 07 章
  96. 01:20:49.344                             : en:第 08 章
  97. 01:29:37.955                             : en:第 09 章
  98. 01:42:13.585                             : en:第 10 章
  99. 01:53:32.430                             : en:第 11 章
  100. 02:04:26.750                             : en:第 12 章
复制代码

















保举请利用qBittorrent,utorrent,transmission等标准BT软件下载!以获得最快速度。奉求保种!





回复

使用道具 举报

蓝光币
23
发表于 2022-7-27 15:39:06 | 显示全部楼层
经典影片,值得收藏!
回复 支持 反对

使用道具 举报

懒得打字嘛,点击右侧快捷回复 【右侧内容,后台自定义】
您需要登录后才可以回帖 登录 | 立即加入

本版积分规则

Archiver|小黑屋| 蓝光电影网 |网站地图

Copyright © 2021 Comsenz Inc. Powered by 蓝光电影网

蓝光电影网

本站内容由用户自主分享和转载自互联网,转载目的在于传递更多信息,并不代表本网赞同其观点和对其真实性负责。

如有侵权、违反国家法律政策行为,请联系我们,我们会第一时间及时清除和处理!

举报反馈邮箱:[email protected]

快速回复 返回顶部 返回列表