找回密码

蓝光电影网

查看: 57|回复: 0

[剧情] 玉面情魔[简繁英双语字幕].Nightmare.Alley.2021.BluRay.1080p.DTS-HD.MA5.1.x265.10bit-ALT 9.03GB

[复制链接]
蓝光币
7
发表于 2022-7-27 02:17:14 | 显示全部楼层 |阅读模式


◎译  名 玉面情魔 / 噩梦巷 / 夜路(台) / 毒心术(港)
◎片  名 Nightmare Alley
◎年  代 2021
◎产  地 美国
◎类  别 剧情 / 悬疑 / 犯罪
◎语  言 英语
◎上映日期 2021-12-17(美国) / 2022-02-01(美国收集)
◎IMDb链接 https://www.imdb.com/title/tt7740496/
◎豆瓣评分 6.8/10 (26252人评价)
◎豆瓣链接 https://movie.douban.com/subject/27605105/
◎片  长 150分钟
◎导  演 吉尔莫·德尔·托罗 Guillermo del Toro
◎编  剧 吉尔莫·德尔·托罗 Guillermo del Toro
       金·摩根 Kim Morgan
       威廉·林赛·葛雷逊 William Lindsay Gresham
◎演  员 布莱德利·库珀 Bradley Cooper
       凯特·布兰切特 Cate Blanchett
       鲁妮·玛拉 Rooney Mara
       托妮·科莱特 Toni Collette
       威廉·达福 Willem Dafoe
       理查德·詹金斯 Richard Jenkins
       朗·普尔曼 Ron Perlman
       玛丽·斯汀伯根 Mary Steenburgen
       大卫·斯特雷泽恩 David Strathairn
       保罗·安德森 Paul Anderson
       霍特·麦克卡兰尼 Holt McCallany
       小克利夫顿·克林斯 Clifton Collins Jr.
       蒂姆·布雷克·尼尔森 Tim Blake Nelson
       吉姆·比弗 Jim Beaver
       大卫·休莱特 David Hewlett
       拉娜·珍·科洛斯特奇 Lara Jean Chorostecki
       黛安·巴查尔 Dian Bachar
       德鲁·尼尔森 Drew Nelson
       罗蜜娜·鲍尔 Romina Power
       马克·波维内利 Mark Povinelli
       提姆·波斯特 Tim Post
       林登·波尔科 Linden Porco
       丹尼·沃 Danny Waugh
       尼尔·怀特利 Neil Whitely
       曼迪·麦克斯韦 Mandi Maxwell
       杰夫·拉斯基 Jeff Lasky
       迪索·拉莫斯 Diezel Ramos
       辛西娅·罗恩 Cynthia Ron
       吉尔莫·德尔·托罗 Guillermo del Toro
       J·迈尔斯·戴尔 J. Miles Dale
       内森·约翰逊 Nathan Johnson
       达恩·劳斯特森 Dan Laustsen
       坎·麦克劳克林 Cam McLauchlin
       罗宾·D·库克 Robin D. Cook
       塔玛拉·德维雷尔 Tamara Deverell
       布兰特·戈登 Brandt Gordon
       谢恩·维奥 Shane Vieau
       查德·科尔比 Chad Corbi
       路易斯·塞凯拉 Luis Sequeira
◎简  介
  斯坦顿(布莱德利·库珀 Bradley Cooper 饰)是一个贫困失意的汉子,误打误撞当中来到了活动马戏团,在这里,他凭仗着自己的聪明才干为自己某得了一份差事——为塔罗牌占卜师赞娜(托妮·科莱特 Toni Collette 饰)和她的情人皮特(大卫·斯特雷泽恩 David Strathairn 饰)工作。从这两小我身上,斯坦顿学会了若何依靠巧言如簧和灵敏观察来发挥观众们眼中的“魔法”。                                       
                                    与此同时,斯坦顿还在马戏团里相逢了名为茉莉(鲁妮·玛拉 Rooney Mara 饰)的女孩,随着时候的推移,斯坦顿和茉莉之间发生了豪情。终极,斯坦顿带着茉莉分开了马戏团,他们深信他们可以靠自己的双手翻开一片属于他们的六合。一晃眼多年曩昔,虽然斯坦顿在占卜圈已经小著名望,但他并不满足,渴望更多的金钱。此时,一个名叫莉莉丝(凯特·布兰切特 Cate Blanchett ...
◎获奖情况 (共18项)
  第94届奥斯卡金像奖 (2022)
  最好影片(提名)
  最好摄影(提名)
   └──达恩·劳斯特森
  最好艺术指导(提名)
  最好打扮设想(提名)
   └──路易斯·塞凯拉
  第75届英国电影学院奖 (2022)
  电影奖 最好摄影(提名)
  电影奖 最好打扮设想(提名)
  电影奖 最好艺术指导(提名)
  第28届美国演员工会奖 (2022)
  电影奖 最好女配角(提名)
   └──凯特·布兰切特
  第74届美国编剧工会奖 (2022)
  电影奖 最好改编剧本(提名)
  第24届美国打扮设想工会奖 (2022)
  年月电影最好打扮设想(提名)
   └──路易斯·塞凯拉
  第27届美国批评家挑选电影奖 (2022)
  最好影片(提名)
  最好导演(提名)
   └──吉尔莫·德尔·托罗
  最好摄影(提名)
   └──达恩·劳斯特森
  最好配乐(提名)
  最好美术指导(提名)
  最好打扮设想(提名)
   └──路易斯·塞凯拉
  最好发型化装(提名)
  最好视觉结果(提名)
  1. ##### MediaInfo ######
  2. General
  3. Unique ID                                : 97071968625751269851202794503607380005 (0x49076190AAC9382E80DACD0CE4776825)
  4. Complete name                            : Nightmare.Alley.2021.BluRay.1080p.DTS-HD.MA5.1.x265.10bit-ALT.mkv
  5. Format                                   : Matroska
  6. Format version                           : Version 4
  7. File size                                : 9.03 GiB
  8. Duration                                 : 2 h 30 min
  9. Overall bit rate mode                    : Variable
  10. Overall bit rate                         : 8 607 kb/s
  11. Encoded date                             : UTC 2022-03-20 01:52:04
  12. Writing application                      : mkvmerge v49.0.0 ('Sick Of Losing Soulmates') 64-bit
  13. Writing library                          : libebml v1.4.0 + libmatroska v1.6.1
  14. Video
  15. ID                                       : 1
  16. Format                                   : HEVC
  17. Format/Info                              : High Efficiency Video Coding
  18. Format profile                           : Main [email protected]@High
  19. Codec ID                                 : V_MPEGH/ISO/HEVC
  20. Duration                                 : 2 h 30 min
  21. Bit rate                                 : 4 673 kb/s
  22. Width                                    : 1 920 pixels
  23. Height                                   : 1 038 pixels
  24. Display aspect ratio                     : 1.85:1
  25. Frame rate mode                          : Constant
  26. Frame rate                               : 23.976 (24000/1001/53875) FPS
  27. Color space                              : YUV
  28. Chroma subsampling                       : 4:2:0
  29. Bit depth                                : 10 bits
  30. Bits/(Pixel*Frame)                       : 0.098
  31. Stream size                              : 4.90 GiB (54%)
  32. Title                                    : HEVC, [email protected]@High, 24/1.001 fps @ 4163 kbps
  33. Writing library                          : x265 3.5+36-1f2c8da77:[Windows][GCC 11.2.0][64 bit] 10bit
  34. Encoding settings                        : cpuid=538751111039 / frame-threads=4 / numa-pools=16 / wpp / pmode / pme / no-psnr / no-ssim / log-level=2 / input-csp=1 / input-res=1920x1038 / interlace=0 / total-frames=215972 / level-idc=51 / high-tier=1 / uhd-bd=0 / ref=5 / no-allow-non-conformance / no-repeat-headers / annexb / no-aud / no-eob / no-eos / no-hrd / info / hash=0 / no-temporal-layers / open-gop / min-keyint=24 / keyint=240 / gop-lookahead=0 / bframes=6 / b-adapt=2 / b-pyramid / bframe-bias=0 / rc-lookahead=40 / lookahead-slices=0 / NTM4NzU=uuDQuD2mJt9fsCf / scenecut=40 / no-hist-scenecut / radl=0 / no-splice / no-intra-refresh / ctu=32 / min-cu-size=8 / no-rect / no-amp / max-tu-size=32 / tu-inter-depth=3 / tu-intra-depth=3 / limit-tu=4 / rdoq-level=2 / dynamic-rd=0.00 / no-ssim-rd / signhide / no-tskip / nr-intra=0 / nr-inter=0 / no-constrained-intra / no-strong-intra-smoothing / max-merge=4 / limit-refs=1 / limit-modes / me=3 / subme=4 / merange=25 / temporal-mvp / no-frame-dup / no-hme / weightp / weightb / no-analyze-src-pics / deblock=-3:-3 / no-sao / no-sao-non-deblock / rd=6 / selective-sao=0 / no-early-skip / rskip / no-fast-intra / no-tskip-fast / no-cu-lossless / b-intra / no-splitrd-skip / rdpenalty=0 / psy-rd=2.00 / psy-rdoq=1.00 / no-rd-refine / no-lossless / cbqpoffs=0 / crqpoffs=0 / rc=crf / crf=17.0 / qcomp=0.65 / qpstep=4 / stats-write=0 / stats-read=0 / vbv-maxrate=80000 / vbv-bufsize=80000 / vbv-init=0.9 / min-vbv-fullness=50.0 / max-vbv-fullness=80.0 / crf-max=0.0 / crf-min=0.0 / ipratio=1.40 / pbratio=1.30 / aq-mode=2 / aq-strength=0.85 / cutree / zone-count=0 / no-strict-cbr / qg-size=32 / no-rc-grain / qpmax=69 / qpmin=0 / no-const-vbv / sar=1 / overscan=0 / videoformat=5 / range=0 / colorprim=1 / transfer=1 / colormatrix=1 / chromaloc=0 / display-window=0 / cll=0,0 / min-luma=0 / max-luma=1023 / log2-max-poc-lsb=8 / vui-timing-info / vui-hrd-info / slices=1 / no-opt-qp-pps / no-opt-ref-list-length-pps / no-multi-pass-opt-rps / scenecut-bias=0.05 / hist-threshold=0.03 / no-opt-cu-delta-qp / no-aq-motion / no-hdr10 / no-hdr10-opt / no-dhdr10-opt / no-idr-recovery-sei / analysis-reuse-level=0 / analysis-save-reuse-level=0 / analysis-load-reuse-level=0 / scale-factor=0 / refine-intra=0 / refine-inter=0 / refine-mv=1 / refine-ctu-distortion=0 / no-limit-sao / ctu-info=0 / no-lowpass-dct / refine-analysis-type=0 / copy-pic=1 / max-ausize-factor=1.0 / no-dynamic-refine / no-single-sei / no-hevc-aq / no-svt / no-field / qp-adaptation-range=1.00 / scenecut-aware-qp=0conformance-window-offsets / right=0 / bottom=0 / NTM4NzU= / decoder-max-rate=0 / no-vbv-live-multi-pass
  35. Language                                 : English
  36. Default                                  : Yes
  37. Forced                                   : No
  38. Color range                              : Limited
  39. Color primaries                          : BT.709
  40. Transfer characteristics                 : BT.709
  41. Matrix coefficients                      : BT.709
  42. Audio
  43. ID                                       : 2
  44. Format                                   : DTS XLL
  45. Format/Info                              : Digital Theater Systems
  46. Commercial name                          : DTS-HD Master Audio
  47. Codec ID                                 : A_DTS
  48. Duration                                 : 2 h 30 min
  49. Bit rate mode                            : Variable
  50. Bit rate                                 : 3 717 kb/s
  51. Channel(s)                               : 6 channels
  52. Channel layout                           : C L R Ls Rs LFE
  53. Sampling rate                            : 48.0 kHz
  54. Frame rate                               : 93.750 FPS (512 SPF)
  55. Bit depth                                : 24 bits
  56. Compression mode                         : Lossless
  57. Stream size                              : 3.90 GiB (43%)
  58. Title                                    : English DTS-HD Master Audio 5.1 @ 3717 kbps
  59. Language                                 : English
  60. Default                                  : Yes
  61. Forced                                   : No
  62. Text #1
  63. ID                                       : 3
  64. Format                                   : PGS
  65. Codec ID                                 : S_HDMV/PGS
  66. Codec ID/Info                            : Picture based subtitle format used on BDs/HD-DVDs
  67. Duration                                 : 2 h 22 min
  68. Bit rate                                 : 45.9 kb/s
  69. Count of elements                        : 4646
  70. Stream size                              : 46.9 MiB (1%)
  71. Title                                    : Eng/SUP
  72. Language                                 : English
  73. Default                                  : No
  74. Forced                                   : No
  75. Text #2
  76. ID                                       : 4
  77. Format                                   : PGS
  78. Codec ID                                 : S_HDMV/PGS
  79. Codec ID/Info                            : Picture based subtitle format used on BDs/HD-DVDs
  80. Duration                                 : 2 h 17 min
  81. Bit rate                                 : 37.3 kb/s
  82. Count of elements                        : 3736
  83. Stream size                              : 36.7 MiB (0%)
  84. Title                                    : Chs/SUP  简体
  85. Language                                 : Chinese
  86. Default                                  : Yes
  87. Forced                                   : No
  88. Text #3
  89. ID                                       : 5
  90. Format                                   : PGS
  91. Codec ID                                 : S_HDMV/PGS
  92. Codec ID/Info                            : Picture based subtitle format used on BDs/HD-DVDs
  93. Duration                                 : 2 h 18 min
  94. Bit rate                                 : 33.2 kb/s
  95. Count of elements                        : 3748
  96. Stream size                              : 32.9 MiB (0%)
  97. Title                                    : Cht/SUP  繁体
  98. Language                                 : Chinese
  99. Default                                  : No
  100. Forced                                   : No
  101. Text #4
  102. ID                                       : 6
  103. Format                                   : PGS
  104. Codec ID                                 : S_HDMV/PGS
  105. Codec ID/Info                            : Picture based subtitle format used on BDs/HD-DVDs
  106. Duration                                 : 2 h 17 min
  107. Bit rate                                 : 56.5 kb/s
  108. Count of elements                        : 3794
  109. Stream size                              : 55.7 MiB (1%)
  110. Title                                    : Chs/SUP  简英双语
  111. Language                                 : Chinese
  112. Default                                  : No
  113. Forced                                   : No
  114. Text #5
  115. ID                                       : 7
  116. Format                                   : PGS
  117. Codec ID                                 : S_HDMV/PGS
  118. Codec ID/Info                            : Picture based subtitle format used on BDs/HD-DVDs
  119. Duration                                 : 2 h 17 min
  120. Bit rate                                 : 57.2 kb/s
  121. Count of elements                        : 3794
  122. Stream size                              : 56.4 MiB (1%)
  123. Title                                    : Cht/SUP  繁英双语
  124. Language                                 : Chinese
  125. Default                                  : No
  126. Forced                                   : No
  127. Menu
  128. 00:00:00.000                             : en:第 01 章
  129. 00:06:01.611                             : en:第 02 章
  130. 00:08:32.387                             : en:第 03 章
  131. 00:14:11.392                             : en:第 04 章
  132. 00:18:53.507                             : en:第 05 章
  133. 00:22:54.748                             : en:第 06 章
  134. 00:29:34.231                             : en:第 07 章
  135. 00:34:22.269                             : en:第 08 章
  136. 00:41:27.318                             : en:第 09 章
  137. 00:50:50.089                             : en:第 10 章
  138. 01:00:07.395                             : en:第 11 章
  139. 01:10:43.156                             : en:第 12 章
  140. 01:18:20.362                             : en:第 13 章
  141. 01:27:15.856                             : en:第 14 章
  142. 01:38:15.473                             : en:第 15 章
  143. 01:47:08.589                             : en:第 16 章
  144. 01:52:52.933                             : en:第 17 章
  145. 01:58:58.757                             : en:第 18 章
  146. 02:05:42.618                             : en:第 19 章
  147. 02:14:06.789                             : en:第 20 章
  148. 02:20:56.990                             : en:第 21 章
复制代码

















保举请利用qBittorrent,utorrent,transmission等标准BT软件下载!以获得最快速度。奉求保种!





回复

使用道具 举报

懒得打字嘛,点击右侧快捷回复 【右侧内容,后台自定义】
您需要登录后才可以回帖 登录 | 立即加入

本版积分规则

Archiver|小黑屋| 蓝光电影网 |网站地图

Copyright © 2021 Comsenz Inc. Powered by 蓝光电影网

蓝光电影网

本站内容由用户自主分享和转载自互联网,转载目的在于传递更多信息,并不代表本网赞同其观点和对其真实性负责。

如有侵权、违反国家法律政策行为,请联系我们,我们会第一时间及时清除和处理!

举报反馈邮箱:[email protected]

快速回复 返回顶部 返回列表