找回密码

蓝光电影网

查看: 199|回复: 0

[剧情] 007:无暇赴死[简繁英双语字幕].No.Time.To.Die.2021.BluRay.1080p.TrueHD.Atmos.7.1.x265.10bit-ALT 15.96GB

[复制链接]
蓝光币
8
发表于 2022-7-27 02:17:18 | 显示全部楼层 |阅读模式


◎译  名 007:无暇赴死 / 007:生死偶然(港) / 007:生死交兵(台) / 007:间不容死 / 邦德25 / 007:没空去死(豆友译名) / James Bond 25 / Never Dream of Dying / Shatterhand
◎片  名 No Time to Die
◎年  代 2021
◎产  地 英国 / 美国
◎类  别 行动 / 惊悚 / 冒险
◎语  言 英语 / 法语 / 意大利语 / 俄语 / 西班牙语
◎上映日期 2021-10-29(中国大陆) / 2021-09-30(英国) / 2021-10-08(美国)
◎IMDb链接 https://www.imdb.com/title/tt2382320/
◎豆瓣评分 6.6/10 (266974人评价)
◎豆瓣链接 https://movie.douban.com/subject/20276229/
◎片  长 163分钟
◎导  演 凯瑞·福永 Cary Fukunaga
◎编  剧 尼尔·珀维斯 Neal Purvis
       罗伯特·韦德 Robert Wade
       凯瑞·福永 Cary Fukunaga
       菲比·沃勒-布里奇 Phoebe Waller-Bridge
       伊恩·弗莱明 Ian Fleming
◎演  员 丹尼尔·克雷格 Daniel Craig
       拉米·马雷克 Rami Malek
       蕾雅·赛杜 Léa Seydoux
       安娜·德·阿玛斯 Ana de Armas
       拉什纳·林奇 Lashana Lynch
       拉尔夫·费因斯 Ralph Fiennes
       本·卫肖 Ben Whishaw
       丽莎-朵拉·桑尼 Lisa-Dorah Sonnet
       娜奥米·哈里斯 Naomie Harris
       罗里·金尼尔 Rory Kinnear
       杰弗里·怀特 Jeffrey Wright
       比利·马格努森 Billy Magnussen
       克里斯托弗·瓦尔兹 Christoph Waltz
       大卫·丹席克 David Dencik
       达利·本萨拉赫 Dali Benssalah
       休·丹尼斯 Hugh Dennis
       普莉安卡·伯福德 Priyanga Burford
       皮奥·阿马托 Pio Amato
       贾文?普林斯 Javone Prince
       艾米·摩根 Amy Morgan
       洛德斯·法比尔斯 Lourdes Faberes
       菲利普·菲尔玛 Philip Philmar
       Raymond Waring Raymond Waring
       可可·萨姆纳 Coco Sumner
       戈登·亚历山大 Gordon Alexander
       戴维·奥拉瓦莱·阿印德 David Olawale Ayinde
       安德鲁·G·奥格尔比 Andrew G. Ogleby
       吉安尼·卡尔切蒂 Gianni Calchetti
       通恰伊·古奈什 Tuncay Gunes
       泰·赫尔利 Ty Hurley
       拉普洛斯·卡伦福佐斯 Lampros Kalfuntzos
       马里安·洛伦西克 Marian Lorencik
       朱利安·费罗 Julian Ferro
        Tina Simmons
       Ben Collins Ben Collins
       汉斯·季默 Hans Zimmer
       碧丽·艾莉许 Billie Eilish
       莱纳斯·桑德格伦 Linus Sandgren
       苏蒂拉特·安妮·拉布 Suttirat Anne Larlarb
       乔恩·马拉德 Jon Mallard
       Ben Collins Ben Collins
◎简  介
  天下大势波诡云谲,再度出山的邦德(丹尼尔·克雷格 饰)面临有史以来空前的危机,传奇异工007的故事在本片中到达飞腾。新老脚色集结亮相,蕾雅·赛杜回归,二度饰演邦女郎玛德琳。系列最可骇反派萨芬(拉米·马雷克 饰)重磅退场,绝不包涵地展现了自己狠辣的一面,不但揭开了玛德琳身上隐藏的奥秘,还酝酿着危及数百万大家命的诡计,鬼魂党的身影也似乎再次浮出水面。半路杀出的新00号奸细(拉什纳·林奇 饰)与奥秘女子(安娜·德·阿玛斯 饰)看似与邦德同阵作战,但其实在目标仍然成谜。关乎邦德生死的新仇旧怨相继而至,暗流澎湃之下他能否拯救天下?
◎获奖情况 (共15项)
  第94届奥斯卡金像奖 (2022)
  最好视觉结果(提名)
  最好声响(提名)
  最好原创歌曲
  第79届金球奖 (2022)
  电影类 最好原创歌曲
   └──菲尼亚斯·奥康奈尔
  第75届英国电影学院奖 (2022)
  电影奖 最好英国影片(提名)
  电影奖 最好摄影(提名)
  电影奖 最好剪辑
  电影奖 最好特别视觉结果(提名)
  电影奖 最好音效(提名)
  第45届日本电影学院奖 (2022)
  最好外语片
  第28届美国演员工会奖 (2022)
  电影最好特技群戏
  第24届美国打扮设想工会奖 (2022)
  现代电影最好打扮设想(提名)
   └──苏蒂拉特·安妮·拉布
  第27届美国批评家挑选电影奖 (2022)
  最好歌曲
  最好视觉结果(提名)
  第7届豆瓣电影年度榜单 (2020)
  最值得期待的外语电影(提名)
  1. ##### MediaInfo ######
  2. General
  3. Unique ID                                : 164724390411955267539842056142950169429 (0x7BECC37BB7B93CA862C6ACDFF4E6FB55)
  4. Complete name                            : No.Time.To.Die.2021.BluRay.1080p.TrueHD.Atmos.7.1.x265.10bit-ALT.mkv
  5. Format                                   : Matroska
  6. Format version                           : Version 4
  7. File size                                : 16.0 GiB
  8. Duration                                 : 2 h 43 min
  9. Overall bit rate mode                    : Variable
  10. Overall bit rate                         : 14.0 Mb/s
  11. Encoded date                             : UTC 2021-12-12 14:49:05
  12. Writing application                      : mkvmerge v49.0.0 ('Sick Of Losing Soulmates') 64-bit
  13. Writing library                          : libebml v1.4.0 + libmatroska v1.6.1
  14. Video
  15. ID                                       : 1
  16. Format                                   : HEVC
  17. Format/Info                              : High Efficiency Video Coding
  18. Format profile                           : Main [email protected]@High
  19. Codec ID                                 : V_MPEGH/ISO/HEVC
  20. Duration                                 : 2 h 43 min
  21. Bit rate                                 : 10.2 Mb/s
  22. Width                                    : 1 920 pixels
  23. Height                                   : 804 pixels
  24. Display aspect ratio                     : 2.40:1
  25. Frame rate mode                          : Constant
  26. Frame rate                               : 23.976 (24000/1001/53875) FPS
  27. Color space                              : YUV
  28. Chroma subsampling                       : 4:2:0
  29. Bit depth                                : 10 bits
  30. Bits/(Pixel*Frame)                       : 0.276
  31. Stream size                              : 11.7 GiB (73%)
  32. Title                                    : HEVC, [email protected]@High, 24/1.001 fps @ 10220 kbps
  33. Writing library                          : x265 3.4+14-gd419c7152:[Windows][GCC 10.2.0][64 bit] 10bit
  34. Encoding settings                        : cpuid=538751111039 / frame-threads=4 / numa-pools=20 / wpp / pmode / pme / no-psnr / no-ssim / log-level=2 / input-csp=1 / input-res=1920x804 / interlace=0 / total-frames=235296 / level-idc=51 / high-tier=1 / uhd-bd=0 / ref=5 / no-allow-non-conformance / no-repeat-headers / annexb / no-aud / no-hrd / info / hash=0 / no-temporal-layers / open-gop / min-keyint=24 / keyint=240 / gop-lookahead=0 / bframes=6 / b-adapt=2 / b-pyramid / bframe-bias=0 / rc-lookahead=40 / lookahead-slices=0 / NTM4NzU=uuDQuD2mJt9fsCf / scenecut=40 / hist-scenecut=0 / radl=0 / no-splice / no-intra-refresh / ctu=32 / min-cu-size=8 / no-rect / no-amp / max-tu-size=32 / tu-inter-depth=3 / tu-intra-depth=3 / limit-tu=4 / rdoq-level=2 / dynamic-rd=0.00 / no-ssim-rd / signhide / no-tskip / nr-intra=0 / nr-inter=0 / no-constrained-intra / no-strong-intra-smoothing / max-merge=4 / limit-refs=1 / limit-modes / me=3 / subme=4 / merange=25 / temporal-mvp / no-frame-dup / no-hme / weightp / weightb / no-analyze-src-pics / deblock=-3:-3 / no-sao / no-sao-non-deblock / rd=6 / selective-sao=0 / no-early-skip / rskip / no-fast-intra / no-tskip-fast / no-cu-lossless / b-intra / no-splitrd-skip / rdpenalty=0 / psy-rd=2.00 / psy-rdoq=1.00 / no-rd-refine / no-lossless / cbqpoffs=0 / crqpoffs=0 / rc=crf / crf=17.0 / qcomp=0.65 / qpstep=4 / stats-write=0 / stats-read=0 / vbv-maxrate=80000 / vbv-bufsize=80000 / vbv-init=0.9 / crf-max=0.0 / crf-min=0.0 / ipratio=1.40 / pbratio=1.30 / aq-mode=2 / aq-strength=0.85 / cutree / zone-count=0 / no-strict-cbr / qg-size=32 / no-rc-grain / qpmax=69 / qpmin=0 / no-const-vbv / sar=1 / overscan=0 / videoformat=5 / range=0 / colorprim=1 / transfer=1 / colormatrix=1 / chromaloc=0 / display-window=0 / cll=0,0 / min-luma=0 / max-luma=1023 / log2-max-poc-lsb=8 / vui-timing-info / vui-hrd-info / slices=1 / no-opt-qp-pps / no-opt-ref-list-length-pps / no-multi-pass-opt-rps / scenecut-bias=0.05 / hist-threshold=0.03 / no-opt-cu-delta-qp / no-aq-motion / no-hdr10 / no-hdr10-opt / no-dhdr10-opt / no-idr-recovery-sei / analysis-reuse-level=0 / analysis-save-reuse-level=0 / analysis-load-reuse-level=0 / scale-factor=0 / refine-intra=0 / refine-inter=0 / refine-mv=1 / refine-ctu-distortion=0 / no-limit-sao / ctu-info=0 / no-lowpass-dct / refine-analysis-type=0 / copy-pic=1 / max-ausize-factor=1.0 / no-dynamic-refine / no-single-sei / no-hevc-aq / no-svt / no-field / qp-adaptation-range=1.00 / no-scenecut-aware-qpconformance-window-offsets / right=0 / bottom=0 / NTM4NzU= / decoder-max-rate=0
  35. Language                                 : English
  36. Default                                  : Yes
  37. Forced                                   : No
  38. Color range                              : Limited
  39. Color primaries                          : BT.709
  40. Transfer characteristics                 : BT.709
  41. Matrix coefficients                      : BT.709
  42. Audio #1
  43. ID                                       : 2
  44. Format                                   : MLP FBA 16-ch
  45. Format/Info                              : Meridian Lossless Packing FBA with 16-channel presentation
  46. Commercial name                          : Dolby TrueHD with Dolby Atmos
  47. Codec ID                                 : A_TRUEHD
  48. Duration                                 : 2 h 43 min
  49. Bit rate mode                            : Variable
  50. Bit rate                                 : 3 057 kb/s
  51. Maximum bit rate                         : 5 397 kb/s
  52. Channel(s)                               : 8 channels
  53. Channel layout                           : L R C LFE Ls Rs Lb Rb
  54. Sampling rate                            : 48.0 kHz
  55. Frame rate                               : 1 200.000 FPS (40 SPF)
  56. Compression mode                         : Lossless
  57. Stream size                              : 3.49 GiB (22%)
  58. Title                                    : English Dolby TrueHD 7.1 (Atmos) @ 3505 kbps
  59. Language                                 : English
  60. Default                                  : Yes
  61. Forced                                   : No
  62. Number of dynamic objects                : 11
  63. Bed channel count                        : 1 channel
  64. Bed channel configuration                : LFE
  65. Audio #2
  66. ID                                       : 3
  67. Format                                   : AC-3
  68. Format/Info                              : Audio Coding 3
  69. Commercial name                          : Dolby Digital
  70. Codec ID                                 : A_AC3
  71. Duration                                 : 2 h 43 min
  72. Bit rate mode                            : Constant
  73. Bit rate                                 : 448 kb/s
  74. Channel(s)                               : 6 channels
  75. Channel layout                           : L R C LFE Ls Rs
  76. Sampling rate                            : 48.0 kHz
  77. Frame rate                               : 31.250 FPS (1536 SPF)
  78. Compression mode                         : Lossy
  79. Stream size                              : 524 MiB (3%)
  80. Title                                    : English Dolby 5.1-EX 5.1 @ 448 kbps
  81. Language                                 : English
  82. Service kind                             : Complete Main
  83. Default                                  : No
  84. Forced                                   : No
  85. Text #1
  86. ID                                       : 4
  87. Format                                   : PGS
  88. Codec ID                                 : S_HDMV/PGS
  89. Codec ID/Info                            : Picture based subtitle format used on BDs/HD-DVDs
  90. Duration                                 : 2 h 39 min
  91. Bit rate                                 : 35.4 kb/s
  92. Count of elements                        : 4296
  93. Stream size                              : 40.4 MiB (0%)
  94. Title                                    : Eng/SUP
  95. Language                                 : English
  96. Default                                  : No
  97. Forced                                   : No
  98. Text #2
  99. ID                                       : 5
  100. Format                                   : PGS
  101. Codec ID                                 : S_HDMV/PGS
  102. Codec ID/Info                            : Picture based subtitle format used on BDs/HD-DVDs
  103. Duration                                 : 2 h 35 min
  104. Bit rate                                 : 28.2 kb/s
  105. Count of elements                        : 2554
  106. Stream size                              : 31.4 MiB (0%)
  107. Title                                    : Chs/SUP  简体
  108. Language                                 : Chinese
  109. Default                                  : Yes
  110. Forced                                   : No
  111. Text #3
  112. ID                                       : 6
  113. Format                                   : PGS
  114. Codec ID                                 : S_HDMV/PGS
  115. Codec ID/Info                            : Picture based subtitle format used on BDs/HD-DVDs
  116. Duration                                 : 2 h 35 min
  117. Bit rate                                 : 28.7 kb/s
  118. Count of elements                        : 2554
  119. Stream size                              : 32.0 MiB (0%)
  120. Title                                    : Cht/SUP  繁体
  121. Language                                 : Chinese
  122. Default                                  : No
  123. Forced                                   : No
  124. Text #4
  125. ID                                       : 7
  126. Format                                   : PGS
  127. Codec ID                                 : S_HDMV/PGS
  128. Codec ID/Info                            : Picture based subtitle format used on BDs/HD-DVDs
  129. Duration                                 : 2 h 35 min
  130. Bit rate                                 : 46.0 kb/s
  131. Count of elements                        : 2557
  132. Stream size                              : 51.3 MiB (0%)
  133. Title                                    : Chs/SUP  简英双语
  134. Language                                 : Chinese
  135. Default                                  : No
  136. Forced                                   : No
  137. Text #5
  138. ID                                       : 8
  139. Format                                   : PGS
  140. Codec ID                                 : S_HDMV/PGS
  141. Codec ID/Info                            : Picture based subtitle format used on BDs/HD-DVDs
  142. Duration                                 : 2 h 35 min
  143. Bit rate                                 : 46.6 kb/s
  144. Count of elements                        : 2557
  145. Stream size                              : 51.9 MiB (0%)
  146. Title                                    : Cht/SUP  繁英双语
  147. Language                                 : Chinese
  148. Default                                  : No
  149. Forced                                   : No
  150. Menu
  151. 00:00:00.000                             : en:第 01 章
  152. 00:07:00.879                             : en:第 02 章
  153. 00:12:06.434                             : en:第 03 章
  154. 00:18:16.345                             : en:第 04 章
  155. 00:27:19.263                             : en:第 05 章
  156. 00:32:48.592                             : en:第 06 章
  157. 00:43:55.299                             : en:第 07 章
  158. 00:57:52.844                             : en:第 08 章
  159. 01:04:15.602                             : en:第 09 章
  160. 01:13:15.766                             : en:第 10 章
  161. 01:22:38.120                             : en:第 11 章
  162. 01:33:58.591                             : en:第 12 章
  163. 01:41:17.363                             : en:第 13 章
  164. 01:52:46.593                             : en:第 14 章
  165. 01:58:39.821                             : en:第 15 章
  166. 02:05:43.995                             : en:第 16 章
  167. 02:14:04.203                             : en:第 17 章
  168. 02:24:08.640                             : en:第 18 章
  169. 02:29:19.826                             : en:第 19 章
  170. 02:37:01.162                             : en:第 20 章
复制代码

















保举请利用qBittorrent,utorrent,transmission等标准BT软件下载!以获得最快速度。奉求保种!





回复

使用道具 举报

懒得打字嘛,点击右侧快捷回复 【右侧内容,后台自定义】
您需要登录后才可以回帖 登录 | 立即加入

本版积分规则

Archiver|小黑屋| 蓝光电影网 |网站地图

Copyright © 2021 Comsenz Inc. Powered by 蓝光电影网

蓝光电影网

本站内容由用户自主分享和转载自互联网,转载目的在于传递更多信息,并不代表本网赞同其观点和对其真实性负责。

如有侵权、违反国家法律政策行为,请联系我们,我们会第一时间及时清除和处理!

举报反馈邮箱:[email protected]

快速回复 返回顶部 返回列表