找回密码

蓝光电影网

查看: 54|回复: 0

[剧情] 留级之王[简繁英双语字幕].National.Lampoons.Van.Wilder.2002.Unrated.BluRay.1080p.DTS-HD.MA7.1.x265.10bit-ALT 7.72GB

[复制链接]
蓝光币
7
发表于 2022-7-27 02:17:20 | 显示全部楼层 |阅读模式


◎译  名 留级之王
◎片  名 Van Wilder
◎年  代 2002
◎产  地 德国 / 美国
◎类  别 笑剧 / 恋爱
◎语  言 英语
◎上映日期 2002-09-05
◎IMDb链接 https://www.imdb.com/title/tt0283111/
◎豆瓣评分 6.8/10 (9945人评价)
◎豆瓣链接 https://movie.douban.com/subject/1305529/
◎片  长 92 分钟
◎导  演 沃尔特·拜克 Walt Becker
◎编  剧 大卫·瓦格纳 David Wagner
◎演  员 瑞安·雷诺兹 Ryan Reynolds
       塔拉·雷德 Tara Reid
       卡尔·潘 Kal Penn
       邦妮·摩根 Bonnie Morgan
       克里斯·欧文 Chris Owen
       阿历克斯·伯恩斯 Alex Burns
       丹尼尔·科斯格罗夫 Daniel Cosgrove
       西蒙·赫尔伯格 Simon Helberg
       亚伦·保尔 Aaron Paul
       Natan Zahavi Natan Zahavi
       大卫·瓦格纳 David Wagner
       Philip von Alvensleben Philip von Alvensleben
       德里克·惠布利 Deryck Whibley
       David Lawrence David Lawrence
       詹姆斯·R·巴格多纳斯 James R. Bagdonas
       Dennis M. Hill Dennis M. Hill
       William J. Durrell Jr. William J. Durrell Jr.
       Tina Harrelson Tina Harrelson
       Martina Kohl Martina Kohl
◎简  介
  范?维尔德(瑞恩?雷诺兹 Ryan Reynolds 饰)迎来了他在库立吉学院的第七个新学年,这位留级之王是学院内的活跃人物,不定期具有社团会长、校园活动倡议者以及篮球社中场精神教父等多重身份。来自印度的交换生泰吉(卡尔?潘 Kal Penn 饰)恋慕美国门生的生活,因而投靠维尔德做了他的助理。维尔德的父亲不胜忍受儿子的不上进,决然中断了对他的帮助,原本风光的维尔德此时不能不为了两万美圆分期托付的学费忧愁。校刊记者葛文(塔拉?雷德 Tara Reid 饰)对维尔德大有爱好,贴身采访撰写关于他的报道,困窘中的维尔德偶然接到有偿帮助构造舞会的要求,自此起头处置舞会掮客人以补助学费,葛文的报道令维尔德申明鹊起,而两人的关系也越发亲近,这激起了葛文男友的愤慨,他计划向维尔德倡议报复……
  1. ##### MediaInfo ######
  2. General
  3. Unique ID                                : 184673997906253889965397778422814407172 (0x8AEEEB128BB7A49BAA45F130B9BEFA04)
  4. Complete name                            : National.Lampoons.Van.Wilder.2002.Unrated.BluRay.1080p.DTS-HD.MA7.1.x265.10bit-ALT.mkv
  5. Format                                   : Matroska
  6. Format version                           : Version 4
  7. File size                                : 7.72 GiB
  8. Duration                                 : 1 h 33 min
  9. Overall bit rate mode                    : Variable
  10. Overall bit rate                         : 11.8 Mb/s
  11. Encoded date                             : UTC 2022-03-06 05:59:18
  12. Writing application                      : mkvmerge v49.0.0 ('Sick Of Losing Soulmates') 64-bit
  13. Writing library                          : libebml v1.4.0 + libmatroska v1.6.1
  14. Video
  15. ID                                       : 1
  16. Format                                   : HEVC
  17. Format/Info                              : High Efficiency Video Coding
  18. Format profile                           : Main [email protected]@High
  19. Codec ID                                 : V_MPEGH/ISO/HEVC
  20. Duration                                 : 1 h 33 min
  21. Bit rate                                 : 8 547 kb/s
  22. Width                                    : 1 920 pixels
  23. Height                                   : 1 038 pixels
  24. Display aspect ratio                     : 1.85:1
  25. Frame rate mode                          : Constant
  26. Frame rate                               : 23.976 (24000/1001/53875) FPS
  27. Color space                              : YUV
  28. Chroma subsampling                       : 4:2:0
  29. Bit depth                                : 10 bits
  30. Bits/(Pixel*Frame)                       : 0.179
  31. Stream size                              : 5.60 GiB (73%)
  32. Title                                    : HEVC, [email protected]@High, 24/1.001 fps @ 8547 kbps
  33. Writing library                          : x265 3.4+14-gd419c7152:[Windows][GCC 10.2.0][64 bit] 10bit
  34. Encoding settings                        : cpuid=538751111039 / frame-threads=4 / numa-pools=16 / wpp / pmode / pme / no-psnr / no-ssim / log-level=2 / input-csp=1 / input-res=1920x1038 / interlace=0 / total-frames=135049 / level-idc=51 / high-tier=1 / uhd-bd=0 / ref=5 / no-allow-non-conformance / no-repeat-headers / annexb / no-aud / no-hrd / info / hash=0 / no-temporal-layers / open-gop / min-keyint=24 / keyint=240 / gop-lookahead=0 / bframes=6 / b-adapt=2 / b-pyramid / bframe-bias=0 / rc-lookahead=40 / lookahead-slices=0 / NTM4NzU=uuDQuD2mJt9fsCf / scenecut=40 / hist-scenecut=0 / radl=0 / no-splice / no-intra-refresh / ctu=32 / min-cu-size=8 / no-rect / no-amp / max-tu-size=32 / tu-inter-depth=3 / tu-intra-depth=3 / limit-tu=4 / rdoq-level=2 / dynamic-rd=0.00 / no-ssim-rd / signhide / no-tskip / nr-intra=0 / nr-inter=0 / no-constrained-intra / no-strong-intra-smoothing / max-merge=4 / limit-refs=1 / limit-modes / me=3 / subme=4 / merange=25 / temporal-mvp / no-frame-dup / no-hme / weightp / weightb / no-analyze-src-pics / deblock=-3:-3 / no-sao / no-sao-non-deblock / rd=6 / selective-sao=0 / no-early-skip / rskip / no-fast-intra / no-tskip-fast / no-cu-lossless / b-intra / no-splitrd-skip / rdpenalty=0 / psy-rd=2.00 / psy-rdoq=1.00 / no-rd-refine / no-lossless / cbqpoffs=0 / crqpoffs=0 / rc=crf / crf=17.0 / qcomp=0.65 / qpstep=4 / stats-write=0 / stats-read=0 / vbv-maxrate=80000 / vbv-bufsize=80000 / vbv-init=0.9 / crf-max=0.0 / crf-min=0.0 / ipratio=1.40 / pbratio=1.30 / aq-mode=2 / aq-strength=0.85 / cutree / zone-count=0 / no-strict-cbr / qg-size=32 / no-rc-grain / qpmax=69 / qpmin=0 / no-const-vbv / sar=1 / overscan=0 / videoformat=5 / range=0 / colorprim=1 / transfer=1 / colormatrix=1 / chromaloc=0 / display-window=0 / cll=0,0 / min-luma=0 / max-luma=1023 / log2-max-poc-lsb=8 / vui-timing-info / vui-hrd-info / slices=1 / no-opt-qp-pps / no-opt-ref-list-length-pps / no-multi-pass-opt-rps / scenecut-bias=0.05 / hist-threshold=0.03 / no-opt-cu-delta-qp / no-aq-motion / no-hdr10 / no-hdr10-opt / no-dhdr10-opt / no-idr-recovery-sei / analysis-reuse-level=0 / analysis-save-reuse-level=0 / analysis-load-reuse-level=0 / scale-factor=0 / refine-intra=0 / refine-inter=0 / refine-mv=1 / refine-ctu-distortion=0 / no-limit-sao / ctu-info=0 / no-lowpass-dct / refine-analysis-type=0 / copy-pic=1 / max-ausize-factor=1.0 / no-dynamic-refine / no-single-sei / no-hevc-aq / no-svt / no-field / qp-adaptation-range=1.00 / no-scenecut-aware-qpconformance-window-offsets / right=0 / bottom=0 / NTM4NzU= / decoder-max-rate=0
  35. Language                                 : English
  36. Default                                  : Yes
  37. Forced                                   : No
  38. Color range                              : Limited
  39. Color primaries                          : BT.709
  40. Transfer characteristics                 : BT.709
  41. Matrix coefficients                      : BT.709
  42. Audio #1
  43. ID                                       : 2
  44. Format                                   : DTS XLL
  45. Format/Info                              : Digital Theater Systems
  46. Commercial name                          : DTS-HD Master Audio
  47. Codec ID                                 : A_DTS
  48. Duration                                 : 1 h 33 min
  49. Bit rate mode                            : Variable
  50. Bit rate                                 : 2 823 kb/s
  51. Channel(s)                               : 8 channels
  52. Channel layout                           : C L R LFE Lb Rb Lss Rss
  53. Sampling rate                            : 48.0 kHz
  54. Frame rate                               : 93.750 FPS (512 SPF)
  55. Bit depth                                : 16 bits
  56. Compression mode                         : Lossless
  57. Stream size                              : 1.85 GiB (24%)
  58. Title                                    : English DTS-HD Master Audio 7.1 @ 2824 kbps
  59. Language                                 : English
  60. Default                                  : Yes
  61. Forced                                   : No
  62. Audio #2
  63. ID                                       : 3
  64. Format                                   : AC-3
  65. Format/Info                              : Audio Coding 3
  66. Commercial name                          : Dolby Digital
  67. Codec ID                                 : A_AC3
  68. Duration                                 : 1 h 33 min
  69. Bit rate mode                            : Constant
  70. Bit rate                                 : 192 kb/s
  71. Channel(s)                               : 2 channels
  72. Channel layout                           : L R
  73. Sampling rate                            : 48.0 kHz
  74. Frame rate                               : 31.250 FPS (1536 SPF)
  75. Compression mode                         : Lossy
  76. Stream size                              : 129 MiB (2%)
  77. Title                                    : English Dolby Digital Audio 2.0 @ 192 kbps  Commentary
  78. Language                                 : English
  79. Service kind                             : Complete Main
  80. Default                                  : No
  81. Forced                                   : No
  82. Text #1
  83. ID                                       : 4
  84. Format                                   : PGS
  85. Codec ID                                 : S_HDMV/PGS
  86. Codec ID/Info                            : Picture based subtitle format used on BDs/HD-DVDs
  87. Duration                                 : 1 h 30 min
  88. Bit rate                                 : 47.1 kb/s
  89. Count of elements                        : 2532
  90. Stream size                              : 30.4 MiB (0%)
  91. Title                                    : Eng/SUP
  92. Language                                 : English
  93. Default                                  : No
  94. Forced                                   : No
  95. Text #2
  96. ID                                       : 5
  97. Format                                   : PGS
  98. Codec ID                                 : S_HDMV/PGS
  99. Codec ID/Info                            : Picture based subtitle format used on BDs/HD-DVDs
  100. Duration                                 : 1 h 30 min
  101. Bit rate                                 : 31.4 kb/s
  102. Count of elements                        : 2534
  103. Stream size                              : 20.3 MiB (0%)
  104. Title                                    : Chs/SUP  简体
  105. Language                                 : Chinese
  106. Default                                  : Yes
  107. Forced                                   : No
  108. Text #3
  109. ID                                       : 6
  110. Format                                   : PGS
  111. Codec ID                                 : S_HDMV/PGS
  112. Codec ID/Info                            : Picture based subtitle format used on BDs/HD-DVDs
  113. Duration                                 : 1 h 30 min
  114. Bit rate                                 : 32.7 kb/s
  115. Count of elements                        : 2534
  116. Stream size                              : 21.1 MiB (0%)
  117. Title                                    : Cht/SUP  繁体
  118. Language                                 : Chinese
  119. Default                                  : No
  120. Forced                                   : No
  121. Text #4
  122. ID                                       : 7
  123. Format                                   : PGS
  124. Codec ID                                 : S_HDMV/PGS
  125. Codec ID/Info                            : Picture based subtitle format used on BDs/HD-DVDs
  126. Duration                                 : 1 h 30 min
  127. Bit rate                                 : 48.6 kb/s
  128. Count of elements                        : 2553
  129. Stream size                              : 31.4 MiB (0%)
  130. Title                                    : Chs/SUP  简英双语
  131. Language                                 : Chinese
  132. Default                                  : No
  133. Forced                                   : No
  134. Text #5
  135. ID                                       : 8
  136. Format                                   : PGS
  137. Codec ID                                 : S_HDMV/PGS
  138. Codec ID/Info                            : Picture based subtitle format used on BDs/HD-DVDs
  139. Duration                                 : 1 h 30 min
  140. Bit rate                                 : 49.8 kb/s
  141. Count of elements                        : 2553
  142. Stream size                              : 32.2 MiB (0%)
  143. Title                                    : Cht/SUP  繁英双语
  144. Language                                 : Chinese
  145. Default                                  : No
  146. Forced                                   : No
  147. Menu
  148. 00:00:00.000                             : en:第 01 章
  149. 00:06:35.395                             : en:第 02 章
  150. 00:09:31.029                             : en:第 03 章
  151. 00:15:42.358                             : en:第 04 章
  152. 00:18:56.969                             : en:第 05 章
  153. 00:24:56.161                             : en:第 06 章
  154. 00:29:00.739                             : en:第 07 章
  155. 00:34:35.824                             : en:第 08 章
  156. 00:41:14.138                             : en:第 09 章
  157. 00:45:24.096                             : en:第 10 章
  158. 00:49:04.900                             : en:第 11 章
  159. 00:53:26.286                             : en:第 12 章
  160. 01:03:08.368                             : en:第 13 章
  161. 01:08:04.831                             : en:第 14 章
  162. 01:12:39.438                             : en:第 15 章
  163. 01:21:42.106                             : en:第 16 章
复制代码

















保举请利用qBittorrent,utorrent,transmission等标准BT软件下载!以获得最快速度。奉求保种!





回复

使用道具 举报

懒得打字嘛,点击右侧快捷回复 【右侧内容,后台自定义】
您需要登录后才可以回帖 登录 | 立即加入

本版积分规则

Archiver|小黑屋| 蓝光电影网 |网站地图

Copyright © 2021 Comsenz Inc. Powered by 蓝光电影网

蓝光电影网

本站内容由用户自主分享和转载自互联网,转载目的在于传递更多信息,并不代表本网赞同其观点和对其真实性负责。

如有侵权、违反国家法律政策行为,请联系我们,我们会第一时间及时清除和处理!

举报反馈邮箱:[email protected]

快速回复 返回顶部 返回列表