找回密码

蓝光电影网

查看: 201|回复: 1

[剧情] 新警察故事[国粤英多音轨/简繁英字幕].New.Police.Story.2004.BluRay.1080p.2Audio.TrueHD.5.1.x265.10bit-ALT 12.52GB

[复制链接]
蓝光币
8
发表于 2022-7-27 02:17:20 | 显示全部楼层 |阅读模式


◎译  名 新差人故事 / New Police Story
◎年  代 2004
◎产  地 中国大陆 / 中国香港
◎类  别 剧情 / 行动 / 惊悚 / 犯罪
◎语  言 英语 / 汉语普通话 / 粤语
◎上映日期 2004-09-24(中国大陆)
◎IMDb链接 https://www.imdb.com/title/tt0386005/
◎豆瓣评分 7.8/10 (304367人评价)
◎豆瓣链接 https://movie.douban.com/subject/1306160/
◎片  长 123分钟
◎导  演 陈木胜 Benny Chan
◎编  剧 袁锦麟 Alan Yuen
◎演  员 成龙 Jackie Chan
       谢霆锋 Nicholas Tse
       杨采妮 Charlie Yeung
       蔡卓妍 Charlene Choi
       吴彦祖 Daniel Wu
       安志杰 Andy On
       尹子维 Terence Yin
       王杰 Dave Wong
       于荣光 Ringo Yu
       叶山豪 Hayama Go
       蒋怡 Coco Chiang
       伍允龙 Philip Ng
       孙淳 Chun Sun
       麦长青 Cheung-Ching Mak
       火星 Mars
       李天翔 Eric Li Tin Cheung
       刘以达 Tats Lau
       文诗琪 Yoki Man
       叶运强 Wan-Keung Yip
       陈桂芬 Brenda Chan
       庄欣玲 Chong Yan-Ling
       谭王鸿 Wing Hung Tam
       黄燕强 Wong Yin Keung
       何伟业 Wai-Yip Ho
       洪天明 Timmy Hung Tin-Ming
       吴浩康 Deep Ng
       高皓正 Zac Koo
       樋口明日嘉 Asuka Higuchi
       张致恒 Steven Cheung
       梁敏仪 Winnie Leung
       卢惠光 Ken Lo
       关智斌 Kenny Kwan
       伍佰 Wu Bai
       蒋雅文 Mandy Chiang
       连凯 Andrew Lin
       Hyun Jin Park Hyun Jin Park
       何华超 Tony Ho
       伍刚 Gang Wu
       吕有慧 Yau-wai Lui
       岑建勋 John Sham
       廖启智 Kai Chi Liu
       黄德斌 Tak-bun Wong
       吴嘉龙 Carl Wu
       彭敬慈 Samuel Pang
       苏志鸿 Solon So
       陈自强 Willie Chan
       杨受成 Albert Yeung
       陈木胜 Benny Chan
       成龙 Jackie Chan
       董韵诗 Barbie Tung
       韦启良 Yee-Leung Wai
       潘耀明 Anthony Pun
       邱志伟 Chi Wai Yau
       黄锐民 Oliver Wong
       王晶晶 Wong Ching Ching
       赵崇邦 Sung Pong Choo
       黄国雄 Samuel Wong
       黄宏达 Victor Wong
       温皓 Hao Wen
       何志辉 Brian Ho
       黄宏显 Eddy Wong
       李忠志 Chung Chi Li
       曾景祥 Kinson Tsang
       吴慧冰 Louisa Ng
◎简  介
  陈国荣(成龙 饰)的地点那一组差人是警队精英,破案无数。阿祖(吴彦祖 饰)是总警师的儿子,却勾结了几个高官子弟( 蒋怡丶尹子维丶安志杰丶叶山豪)应战警方。他们到银行抢劫,警钟敲响差人赶到时,就把阿荣及队员带进了一个早已设想好的空阔仓库里。警察都陷进了强盗早已设想好的游戏法式里,残暴的被杀戮,连阿荣女朋友可颐 (杨采妮 饰)的弟弟也被没法幸免。阿荣就此被停职,出于惭愧也跟可颐分手了。 整天喝得烂醉的阿荣在酒吧碰到了阿锋(谢霆锋 饰),阿锋为了使阿荣抖擞起来,决议假扮差人告诉阿荣自己是下属派来要求获得阿荣辅佐昭雪的新警察。 阿荣又碰到那群狠狠冲击他的罪犯,与他们斗志斗勇,在警花莎莎(蔡卓妍 饰)的辅佐下晓得强盗昔时的事务被编成了一部游戏,同时也晓得了昔时为何情报被泄露的缘由。
◎获奖情况 (共28项)
  第41届台北金马影展 (2004)
  金马奖 最好男配角
   └──吴彦祖
  金马奖 最好美术设想(提名)
  金马奖 最好行动设想
   └──李忠志
  金马奖 最好剪辑(提名)
   └──邱志伟
  金马奖 最好音效(提名)
   └──曾景祥
  金马奖 最好视觉结果
  观众票选最好影片
  第24届香港电影金像奖 (2005)
  最好电影(提名)
  最好导演(提名)
   └──陈木胜
  最好男配角(提名)
   └──成龙
  最好男配角(提名)
   └──吴彦祖
  最好剪接(提名)
   └──邱志伟
  最好行动设想(提名)
   └──李忠志
  最好声响结果(提名)
   └──曾景祥
  最好视觉结果(提名)
  第25届中国电影金鸡奖 (2005)
  最好故事片(提名)
  最好男配角
   └──成龙
  最好男配角(提名)
   └──吴彦祖
  最好录音(提名)
   └──曾景祥
  第28届公共电影百花奖 (2006)
  最好故事片(提名)
  最好男配角(提名)
   └──成龙
  最好男配角
   └──谢霆锋
  第11届中国电影华表奖 (2005)
  优异合拍片奖(提名)
  第7届中国长春电影节 (2005)
  金鹿奖 最好华语故事片(提名)
  金鹿奖 票房代价奖
  第5届华语电影传媒大奖 (2005)
  百祖传媒年度致敬电影(提名)
  第12届北京大门生电影节 (2005)
  最好男演员奖(提名)
   └──成龙
  最好观赏结果奖(提名)
  1. ##### MediaInfo ######
  2. General
  3. Unique ID                                : 323209345977348197030647591506284018830 (0xF327DB13E5B65536473677DFAE767C8E)
  4. Complete name                            : New.Police.Story.2004.BluRay.1080p.2Audio.TrueHD.5.1.x265.10bit-ALT.mkv
  5. Format                                   : Matroska
  6. Format version                           : Version 4
  7. File size                                : 12.5 GiB
  8. Duration                                 : 2 h 2 min
  9. Overall bit rate mode                    : Variable
  10. Overall bit rate                         : 14.6 Mb/s
  11. Encoded date                             : UTC 2021-12-31 01:26:10
  12. Writing application                      : mkvmerge v49.0.0 ('Sick Of Losing Soulmates') 64-bit
  13. Writing library                          : libebml v1.4.0 + libmatroska v1.6.1
  14. Video
  15. ID                                       : 1
  16. Format                                   : HEVC
  17. Format/Info                              : High Efficiency Video Coding
  18. Format profile                           : Main [email protected]@High
  19. Codec ID                                 : V_MPEGH/ISO/HEVC
  20. Duration                                 : 2 h 2 min
  21. Bit rate                                 : 10.3 Mb/s
  22. Width                                    : 1 920 pixels
  23. Height                                   : 816 pixels
  24. Display aspect ratio                     : 2.35:1
  25. Frame rate mode                          : Constant
  26. Frame rate                               : 24.000 FPS
  27. Color space                              : YUV
  28. Chroma subsampling                       : 4:2:0
  29. Bit depth                                : 10 bits
  30. Bits/(Pixel*Frame)                       : 0.273
  31. Stream size                              : 8.82 GiB (70%)
  32. Title                                    : HEVC, [email protected]@High, 24 fps @ 10283 kbps
  33. Writing library                          : x265 3.4+14-gd419c7152:[Windows][GCC 10.2.0][64 bit] 10bit
  34. Encoding settings                        : cpuid=538751111039 / frame-threads=4 / numa-pools=16 / wpp / pmode / pme / no-psnr / no-ssim / log-level=2 / input-csp=1 / input-res=1920x816 / interlace=0 / total-frames=176727 / level-idc=51 / high-tier=1 / uhd-bd=0 / ref=5 / no-allow-non-conformance / no-repeat-headers / annexb / no-aud / no-hrd / info / hash=0 / no-temporal-layers / open-gop / min-keyint=24 / keyint=240 / gop-lookahead=0 / bframes=6 / b-adapt=2 / b-pyramid / bframe-bias=0 / rc-lookahead=40 / lookahead-slices=0 / NTM4NzU=uuDQuD2mJt9fsCf / scenecut=40 / hist-scenecut=0 / radl=0 / no-splice / no-intra-refresh / ctu=32 / min-cu-size=8 / no-rect / no-amp / max-tu-size=32 / tu-inter-depth=3 / tu-intra-depth=3 / limit-tu=4 / rdoq-level=2 / dynamic-rd=0.00 / no-ssim-rd / signhide / no-tskip / nr-intra=0 / nr-inter=0 / no-constrained-intra / no-strong-intra-smoothing / max-merge=4 / limit-refs=1 / limit-modes / me=3 / subme=4 / merange=25 / temporal-mvp / no-frame-dup / no-hme / weightp / weightb / no-analyze-src-pics / deblock=-3:-3 / no-sao / no-sao-non-deblock / rd=6 / selective-sao=0 / no-early-skip / rskip / no-fast-intra / no-tskip-fast / no-cu-lossless / b-intra / no-splitrd-skip / rdpenalty=0 / psy-rd=2.00 / psy-rdoq=1.00 / no-rd-refine / no-lossless / cbqpoffs=0 / crqpoffs=0 / rc=crf / crf=18.5 / qcomp=0.65 / qpstep=4 / stats-write=0 / stats-read=0 / vbv-maxrate=80000 / vbv-bufsize=80000 / vbv-init=0.9 / crf-max=0.0 / crf-min=0.0 / ipratio=1.40 / pbratio=1.30 / aq-mode=2 / aq-strength=0.85 / cutree / zone-count=0 / no-strict-cbr / qg-size=32 / no-rc-grain / qpmax=69 / qpmin=0 / no-const-vbv / sar=1 / overscan=0 / videoformat=5 / range=0 / colorprim=1 / transfer=1 / colormatrix=1 / chromaloc=0 / display-window=0 / cll=0,0 / min-luma=0 / max-luma=1023 / log2-max-poc-lsb=8 / vui-timing-info / vui-hrd-info / slices=1 / no-opt-qp-pps / no-opt-ref-list-length-pps / no-multi-pass-opt-rps / scenecut-bias=0.05 / hist-threshold=0.03 / no-opt-cu-delta-qp / no-aq-motion / no-hdr10 / no-hdr10-opt / no-dhdr10-opt / no-idr-recovery-sei / analysis-reuse-level=0 / analysis-save-reuse-level=0 / analysis-load-reuse-level=0 / scale-factor=0 / refine-intra=0 / refine-inter=0 / refine-mv=1 / refine-ctu-distortion=0 / no-limit-sao / ctu-info=0 / no-lowpass-dct / refine-analysis-type=0 / copy-pic=1 / max-ausize-factor=1.0 / no-dynamic-refine / no-single-sei / no-hevc-aq / no-svt / no-field / qp-adaptation-range=1.00 / no-scenecut-aware-qpconformance-window-offsets / right=0 / bottom=0 / NTM4NzU= / decoder-max-rate=0
  35. Language                                 : English
  36. Default                                  : Yes
  37. Forced                                   : No
  38. Color range                              : Limited
  39. Color primaries                          : BT.709
  40. Transfer characteristics                 : BT.709
  41. Matrix coefficients                      : BT.709
  42. Audio #1
  43. ID                                       : 2
  44. Format                                   : MLP FBA
  45. Format/Info                              : Meridian Lossless Packing FBA
  46. Commercial name                          : Dolby TrueHD
  47. Codec ID                                 : A_TRUEHD
  48. Duration                                 : 2 h 2 min
  49. Bit rate mode                            : Variable
  50. Bit rate                                 : 2 913 kb/s
  51. Maximum bit rate                         : 4 818 kb/s
  52. Channel(s)                               : 6 channels
  53. Channel layout                           : L R C LFE Ls Rs
  54. Sampling rate                            : 96.0 kHz
  55. Frame rate                               : 1 200.000 FPS (80 SPF)
  56. Compression mode                         : Lossless
  57. Stream size                              : 2.50 GiB (20%)
  58. Title                                    : Cantonese Dolby TrueHD Audio 5.1 @ 3553 kbps
  59. Language                                 : Chinese
  60. Default                                  : Yes
  61. Forced                                   : No
  62. Audio #2
  63. ID                                       : 3
  64. Format                                   : AC-3
  65. Format/Info                              : Audio Coding 3
  66. Commercial name                          : Dolby Digital
  67. Codec ID                                 : A_AC3
  68. Duration                                 : 2 h 2 min
  69. Bit rate mode                            : Constant
  70. Bit rate                                 : 640 kb/s
  71. Channel(s)                               : 6 channels
  72. Channel layout                           : L R C LFE Ls Rs
  73. Sampling rate                            : 48.0 kHz
  74. Frame rate                               : 31.250 FPS (1536 SPF)
  75. Compression mode                         : Lossy
  76. Stream size                              : 562 MiB (4%)
  77. Title                                    : Cantonese Dolby Digital Audio 5.1 @ 640 kbps
  78. Language                                 : Chinese
  79. Service kind                             : Complete Main
  80. Default                                  : No
  81. Forced                                   : No
  82. Audio #3
  83. ID                                       : 4
  84. Format                                   : AC-3
  85. Format/Info                              : Audio Coding 3
  86. Commercial name                          : Dolby Digital
  87. Codec ID                                 : A_AC3
  88. Duration                                 : 2 h 2 min
  89. Bit rate mode                            : Constant
  90. Bit rate                                 : 640 kb/s
  91. Channel(s)                               : 6 channels
  92. Channel layout                           : L R C LFE Ls Rs
  93. Sampling rate                            : 48.0 kHz
  94. Frame rate                               : 31.250 FPS (1536 SPF)
  95. Compression mode                         : Lossy
  96. Stream size                              : 562 MiB (4%)
  97. Title                                    : Mandarin Dolby Digital Audio 5.1 @ 640 kbps
  98. Language                                 : Chinese
  99. Service kind                             : Complete Main
  100. Default                                  : No
  101. Forced                                   : No
  102. Text #1
  103. ID                                       : 5
  104. Format                                   : PGS
  105. Codec ID                                 : S_HDMV/PGS
  106. Codec ID/Info                            : Picture based subtitle format used on BDs/HD-DVDs
  107. Duration                                 : 2 h 1 min
  108. Bit rate                                 : 20.9 kb/s
  109. Count of elements                        : 1871
  110. Stream size                              : 18.2 MiB (0%)
  111. Title                                    : Cht/SUP  原盘繁体
  112. Language                                 : Chinese
  113. Default                                  : No
  114. Forced                                   : No
  115. Text #2
  116. ID                                       : 6
  117. Format                                   : PGS
  118. Codec ID                                 : S_HDMV/PGS
  119. Codec ID/Info                            : Picture based subtitle format used on BDs/HD-DVDs
  120. Duration                                 : 2 h 1 min
  121. Bit rate                                 : 20.5 kb/s
  122. Count of elements                        : 1871
  123. Stream size                              : 17.8 MiB (0%)
  124. Title                                    : Chs/SUP  原盘简体
  125. Language                                 : Chinese
  126. Default                                  : Yes
  127. Forced                                   : No
  128. Text #3
  129. ID                                       : 7
  130. Format                                   : PGS
  131. Codec ID                                 : S_HDMV/PGS
  132. Codec ID/Info                            : Picture based subtitle format used on BDs/HD-DVDs
  133. Duration                                 : 2 h 1 min
  134. Bit rate                                 : 20.9 kb/s
  135. Count of elements                        : 1868
  136. Stream size                              : 18.2 MiB (0%)
  137. Title                                    : Eng/SUP
  138. Language                                 : English
  139. Default                                  : No
  140. Forced                                   : No
  141. Menu
  142. 00:00:00.000                             : en:第 01 章
  143. 00:10:44.375                             : en:第 02 章
  144. 00:20:31.250                             : en:第 03 章
  145. 00:33:34.292                             : en:第 04 章
  146. 00:41:01.250                             : en:第 05 章
  147. 00:49:57.458                             : en:第 06 章
  148. 00:59:54.000                             : en:第 07 章
  149. 01:13:53.375                             : en:第 08 章
  150. 01:21:34.625                             : en:第 09 章
  151. 01:31:09.500                             : en:第 10 章
  152. 01:38:17.750                             : en:第 11 章
  153. 01:47:53.250                             : en:第 12 章
复制代码

















保举请利用qBittorrent,utorrent,transmission等标准BT软件下载!以获得最快速度。奉求保种!





回复

使用道具 举报

蓝光币
382
发表于 2022-7-27 20:26:07 | 显示全部楼层
楼主发贴辛苦了,谢谢楼主分享!我觉得蓝光电影网是注册对了!
回复 支持 反对

使用道具 举报

懒得打字嘛,点击右侧快捷回复 【右侧内容,后台自定义】
您需要登录后才可以回帖 登录 | 立即加入

本版积分规则

Archiver|小黑屋| 蓝光电影网 |网站地图

Copyright © 2021 Comsenz Inc. Powered by 蓝光电影网

蓝光电影网

本站内容由用户自主分享和转载自互联网,转载目的在于传递更多信息,并不代表本网赞同其观点和对其真实性负责。

如有侵权、违反国家法律政策行为,请联系我们,我们会第一时间及时清除和处理!

举报反馈邮箱:[email protected]

快速回复 返回顶部 返回列表