找回密码

蓝光电影网

查看: 78|回复: 0

[剧情] 娜娜[简繁英字幕].Nana.2005.BluRay.1080p.DTS-HD.MA5.1.x265.10bit-ALT 7.28GB

[复制链接]
蓝光币
7
发表于 2022-7-27 02:17:22 | 显示全部楼层 |阅读模式


◎译  名 娜娜 / 世上的另一个我 / NANA / NANA:世上的另一个我(港)
◎片  名 Nana
◎年  代 2005
◎产  地 日本
◎类  别 剧情 / 音乐
◎语  言 日语 / 英语
◎上映日期 2005-09-03(日本)
◎IMDb链接 https://www.imdb.com/title/tt0471834/
◎豆瓣评分 7.8/10 (123248人评价)
◎豆瓣链接 https://movie.douban.com/subject/1421823/
◎片  长 113 分钟
◎导  演 大谷健太郎 Kentar? ?tani
◎编  剧 矢泽爱 Ai Yazawa
       浅野妙子 Taeko Asano
       大谷健太郎 Kentar? ?tani
◎演  员 中岛美嘉 Mika Nakashima
       宫崎葵 Aoi Miyazaki
       成宫宽贵 Hiroki Narimiya
       松山研一 Ken'ichi Matsuyama
       纱荣子 Saeko
       松田龙平 Ry?hei Matsuda
       平冈祐太 Y?ta Hiraoka
       玉山铁二 Tetsuji Tamayama
       柳原晴郎 Bengaru
       丸山智己 Tomomi Maruyama
       虎牙光挥 Mitsuki Koga
       平泽里菜子 Rinako Hirasawa
       绫野刚 G? Ayano  (id:1314909)
       滨名一哉 Kazuya Hamana
       鈴木一博 Kazuhiro Suzuki
◎简  介
  另一个译名是:世上的另一个我。小松奈奈(宫崎葵饰)要去见男朋友,在通往东京的火车上,她碰到了另一个Nana——大崎娜娜(中岛美嘉饰),娜娜希望去东京重组Black Stone乐队。两个nana一见仍旧,到达了东京有两人再次相遇,而且一同搬进了出租屋707。两人虽然有着一样的名字,却有着悬殊的性情,在二人同居的生活时代,她们都遭到了豪情的创伤,她们在扶持中加倍领会相互,豪情也越来越深,一路激励对方寻觅自己的理想。
◎获奖情况 (共3项)
  第29届日本电影学院奖 (2006)
  话题奖 最具话题影片奖
  最好女配角(提名)
   └──中岛美嘉
  最好新人
   └──中岛美嘉
  1. ##### MediaInfo ######
  2. General
  3. Unique ID                                : 84719718453282890247115155910648341844 (0x3FBC6C9CA042955EAA2259CEA7B72554)
  4. Complete name                            : Nana.2005.BluRay.1080p.DTS-HD.MA5.1.x265.10bit-ALT.mkv
  5. Format                                   : Matroska
  6. Format version                           : Version 4
  7. File size                                : 7.28 GiB
  8. Duration                                 : 1 h 54 min
  9. Overall bit rate mode                    : Variable
  10. Overall bit rate                         : 9 061 kb/s
  11. Encoded date                             : UTC 2021-12-12 15:06:15
  12. Writing application                      : mkvmerge v49.0.0 ('Sick Of Losing Soulmates') 64-bit
  13. Writing library                          : libebml v1.4.0 + libmatroska v1.6.1
  14. Video
  15. ID                                       : 1
  16. Format                                   : HEVC
  17. Format/Info                              : High Efficiency Video Coding
  18. Format profile                           : Main [email protected]@High
  19. Codec ID                                 : V_MPEGH/ISO/HEVC
  20. Duration                                 : 1 h 54 min
  21. Bit rate                                 : 7 647 kb/s
  22. Width                                    : 1 920 pixels
  23. Height                                   : 1 034 pixels
  24. Display aspect ratio                     : 1.85:1
  25. Frame rate mode                          : Constant
  26. Frame rate                               : 29.970 (30000/1001/53875) FPS
  27. Color space                              : YUV
  28. Chroma subsampling                       : 4:2:0
  29. Bit depth                                : 10 bits
  30. Bits/(Pixel*Frame)                       : 0.129
  31. Stream size                              : 6.14 GiB (84%)
  32. Title                                    : HEVC, [email protected]@High, 24/1.001 fps @ 7647 kbps
  33. Writing library                          : x265 3.4+14-gd419c7152:[Windows][GCC 10.2.0][64 bit] 10bit
  34. Encoding settings                        : cpuid=538751111039 / frame-threads=4 / numa-pools=16 / wpp / pmode / pme / no-psnr / no-ssim / log-level=2 / input-csp=1 / input-res=1920x1034 / interlace=0 / total-frames=206777 / level-idc=51 / high-tier=1 / uhd-bd=0 / ref=5 / no-allow-non-conformance / no-repeat-headers / annexb / no-aud / no-hrd / info / hash=0 / no-temporal-layers / open-gop / min-keyint=24 / keyint=240 / gop-lookahead=0 / bframes=6 / b-adapt=2 / b-pyramid / bframe-bias=0 / rc-lookahead=40 / lookahead-slices=0 / NTM4NzU=uuDQuD2mJt9fsCf / scenecut=40 / hist-scenecut=0 / radl=0 / no-splice / no-intra-refresh / ctu=32 / min-cu-size=8 / no-rect / no-amp / max-tu-size=32 / tu-inter-depth=3 / tu-intra-depth=3 / limit-tu=4 / rdoq-level=2 / dynamic-rd=0.00 / no-ssim-rd / signhide / no-tskip / nr-intra=0 / nr-inter=0 / no-constrained-intra / no-strong-intra-smoothing / max-merge=4 / limit-refs=1 / limit-modes / me=3 / subme=4 / merange=25 / temporal-mvp / no-frame-dup / no-hme / weightp / weightb / no-analyze-src-pics / deblock=-3:-3 / no-sao / no-sao-non-deblock / rd=6 / selective-sao=0 / no-early-skip / rskip / no-fast-intra / no-tskip-fast / no-cu-lossless / b-intra / no-splitrd-skip / rdpenalty=0 / psy-rd=2.00 / psy-rdoq=1.00 / no-rd-refine / no-lossless / cbqpoffs=0 / crqpoffs=0 / rc=crf / crf=18.5 / qcomp=0.65 / qpstep=4 / stats-write=0 / stats-read=0 / vbv-maxrate=80000 / vbv-bufsize=80000 / vbv-init=0.9 / crf-max=0.0 / crf-min=0.0 / ipratio=1.40 / pbratio=1.30 / aq-mode=2 / aq-strength=0.85 / cutree / zone-count=0 / no-strict-cbr / qg-size=32 / no-rc-grain / qpmax=69 / qpmin=0 / no-const-vbv / sar=1 / overscan=0 / videoformat=5 / range=0 / colorprim=1 / transfer=1 / colormatrix=1 / chromaloc=0 / display-window=0 / cll=0,0 / min-luma=0 / max-luma=1023 / log2-max-poc-lsb=8 / vui-timing-info / vui-hrd-info / slices=1 / no-opt-qp-pps / no-opt-ref-list-length-pps / no-multi-pass-opt-rps / scenecut-bias=0.05 / hist-threshold=0.03 / no-opt-cu-delta-qp / no-aq-motion / no-hdr10 / no-hdr10-opt / no-dhdr10-opt / no-idr-recovery-sei / analysis-reuse-level=0 / analysis-save-reuse-level=0 / analysis-load-reuse-level=0 / scale-factor=0 / refine-intra=0 / refine-inter=0 / refine-mv=1 / refine-ctu-distortion=0 / no-limit-sao / ctu-info=0 / no-lowpass-dct / refine-analysis-type=0 / copy-pic=1 / max-ausize-factor=1.0 / no-dynamic-refine / no-single-sei / no-hevc-aq / no-svt / no-field / qp-adaptation-range=1.00 / no-scenecut-aware-qpconformance-window-offsets / right=0 / bottom=0 / NTM4NzU= / decoder-max-rate=0
  35. Language                                 : English
  36. Default                                  : Yes
  37. Forced                                   : No
  38. Color range                              : Limited
  39. Color primaries                          : BT.709
  40. Transfer characteristics                 : BT.709
  41. Matrix coefficients                      : BT.709
  42. Audio
  43. ID                                       : 2
  44. Format                                   : DTS XLL
  45. Format/Info                              : Digital Theater Systems
  46. Commercial name                          : DTS-HD Master Audio
  47. Codec ID                                 : A_DTS
  48. Duration                                 : 1 h 54 min
  49. Bit rate mode                            : Variable
  50. Bit rate                                 : 1 344 kb/s
  51. Channel(s)                               : 6 channels
  52. Channel layout                           : C L R Ls Rs LFE
  53. Sampling rate                            : 48.0 kHz
  54. Frame rate                               : 93.750 FPS (512 SPF)
  55. Bit depth                                : 16 bits
  56. Compression mode                         : Lossless
  57. Stream size                              : 1.08 GiB (15%)
  58. Title                                    : Japanese DTS-HD Master Audio 5.1 @ 1344 kbps
  59. Language                                 : Japanese
  60. Default                                  : Yes
  61. Forced                                   : No
  62. Text #1
  63. ID                                       : 3
  64. Format                                   : PGS
  65. Codec ID                                 : S_HDMV/PGS
  66. Codec ID/Info                            : Picture based subtitle format used on BDs/HD-DVDs
  67. Duration                                 : 1 h 49 min
  68. Bit rate                                 : 28.1 kb/s
  69. Count of elements                        : 1506
  70. Stream size                              : 21.9 MiB (0%)
  71. Title                                    : Eng/SUP
  72. Language                                 : English
  73. Default                                  : No
  74. Forced                                   : No
  75. Text #2
  76. ID                                       : 4
  77. Format                                   : PGS
  78. Codec ID                                 : S_HDMV/PGS
  79. Codec ID/Info                            : Picture based subtitle format used on BDs/HD-DVDs
  80. Duration                                 : 1 h 54 min
  81. Bit rate                                 : 20.0 kb/s
  82. Count of elements                        : 2705
  83. Stream size                              : 16.4 MiB (0%)
  84. Title                                    : Chs/SUP  简体
  85. Language                                 : Chinese
  86. Default                                  : Yes
  87. Forced                                   : No
  88. Text #3
  89. ID                                       : 5
  90. Format                                   : PGS
  91. Codec ID                                 : S_HDMV/PGS
  92. Codec ID/Info                            : Picture based subtitle format used on BDs/HD-DVDs
  93. Duration                                 : 1 h 54 min
  94. Bit rate                                 : 20.8 kb/s
  95. Count of elements                        : 2705
  96. Stream size                              : 17.0 MiB (0%)
  97. Title                                    : Cht/SUP  繁体
  98. Language                                 : Chinese
  99. Default                                  : No
  100. Forced                                   : No
  101. Menu
  102. 00:00:00.000                             : en:Chapter 1
  103. 00:05:04.804                             : en:Chapter 2
  104. 00:12:55.608                             : en:Chapter 3
  105. 00:23:13.325                             : en:Chapter 4
  106. 00:33:50.395                             : en:Chapter 5
  107. 00:41:51.776                             : en:Chapter 6
  108. 00:50:42.339                             : en:Chapter 7
  109. 01:01:47.537                             : en:Chapter 8
  110. 01:10:46.242                             : en:Chapter 9
  111. 01:16:47.536                             : en:Chapter 10
  112. 01:31:43.832                             : en:Chapter 11
  113. 01:43:21.228                             : en:Chapter 12
复制代码

















保举请利用qBittorrent,utorrent,transmission等标准BT软件下载!以获得最快速度。奉求保种!





回复

使用道具 举报

懒得打字嘛,点击右侧快捷回复 【右侧内容,后台自定义】
您需要登录后才可以回帖 登录 | 立即加入

本版积分规则

Archiver|小黑屋| 蓝光电影网 |网站地图

Copyright © 2021 Comsenz Inc. Powered by 蓝光电影网

蓝光电影网

本站内容由用户自主分享和转载自互联网,转载目的在于传递更多信息,并不代表本网赞同其观点和对其真实性负责。

如有侵权、违反国家法律政策行为,请联系我们,我们会第一时间及时清除和处理!

举报反馈邮箱:[email protected]

快速回复 返回顶部 返回列表