找回密码

蓝光电影网

查看: 154|回复: 0

[剧情] 多情种[国粤英多音轨/简繁英字幕].My.Little.Sentimental.Friend.1984.BluRay.1080p.2Audio.DTS-HD.MA.2.0.x265.10bit-ALT 8.31GB

[复制链接]
蓝光币
8
发表于 2022-7-27 02:17:23 | 显示全部楼层 |阅读模式


◎译  名 多情种 / My Little Sentimental Friend
◎片  名 多情種
◎年  代 1984
◎产  地 中国香港
◎类  别 笑剧 / 恋爱
◎语  言 粤语 / 汉语普通话
◎上映日期 1984-10-18(中国香港)
◎IMDb链接 https://www.imdb.com/title/tt0087184/
◎豆瓣评分 6.0/10 (395人评价)
◎豆瓣链接 https://movie.douban.com/subject/2138569/
◎片  长 96分钟
◎导  演 沈月明 Yueming Shen
◎演  员 曾志伟 Eric Tsang
       林良蕙 Rowena Lam
       吕良伟 Ray Lui
       林建明 Meg Lam
       罗浩楷 Ho Kai Law
       简而清 Yee Ching Gan
       黎安儿 On Yee Lai
       欧阳莎菲 Sha-fei Ouyang
       谭咏麟 Alan Tam
       曹达华 Tat-wah Cho
       董骠 Bill Tung
       吴浣仪 Yuen Yee Ng
       林敏怡 Man Yee Lam
       金霏 Tina Fei Chin
       陆文华 Man-Wah Luk
       黄百鸣 Raymond Wong
       林敏怡 Man Yee Lam
       梁志明 Chi-Ming Leung
       蒋国权 Kwang Che Ching
       张叔平 William Chang
       赵良骏 Samson Chiu
◎简  介
  洛奇是管弦乐团的三角敲击手。在成婚一周年的纪念日,他太太离家出走。好朋友查理及其同居女友妙芬决议为洛奇先容女朋友,以填补其空虚的心灵。在一次交通意外,妙芬受伤留医。查理为公干远游,妙芬对他重利轻离的行为非常不满,反而洛奇悉心庇护,使两人友谊酿成恋爱……
  1. ##### MediaInfo ######
  2. General
  3. Unique ID                                : 186876487267798954545625746748166248986 (0x8C971A2E91D0042FE5C3DDEAB5F21A1A)
  4. Complete name                            : My.Little.Sentimental.Friend.1984.BluRay.1080p.2Audio.DTS-HD.MA.2.0.x265.10bit-ALT.mkv
  5. Format                                   : Matroska
  6. Format version                           : Version 4
  7. File size                                : 8.31 GiB
  8. Duration                                 : 1 h 36 min
  9. Overall bit rate mode                    : Variable
  10. Overall bit rate                         : 12.4 Mb/s
  11. Encoded date                             : UTC 2021-12-04 04:44:16
  12. Writing application                      : mkvmerge v49.0.0 ('Sick Of Losing Soulmates') 64-bit
  13. Writing library                          : libebml v1.4.0 + libmatroska v1.6.1
  14. Video
  15. ID                                       : 1
  16. Format                                   : HEVC
  17. Format/Info                              : High Efficiency Video Coding
  18. Format profile                           : Main [email protected]@High
  19. Codec ID                                 : V_MPEGH/ISO/HEVC
  20. Duration                                 : 1 h 36 min
  21. Bit rate                                 : 9 478 kb/s
  22. Width                                    : 1 920 pixels
  23. Height                                   : 1 036 pixels
  24. Display aspect ratio                     : 1.85:1
  25. Frame rate mode                          : Constant
  26. Frame rate                               : 24.000 FPS
  27. Color space                              : YUV
  28. Chroma subsampling                       : 4:2:0
  29. Bit depth                                : 10 bits
  30. Bits/(Pixel*Frame)                       : 0.199
  31. Stream size                              : 6.37 GiB (77%)
  32. Title                                    : HEVC, [email protected]@High, 24 fps @ 9477 kbps
  33. Writing library                          : x265 3.4+14-gd419c7152:[Windows][GCC 10.2.0][64 bit] 10bit
  34. Encoding settings                        : cpuid=538751111039 / frame-threads=4 / numa-pools=16 / wpp / pmode / pme / no-psnr / no-ssim / log-level=2 / input-csp=1 / input-res=1920x1036 / interlace=0 / total-frames=138593 / level-idc=51 / high-tier=1 / uhd-bd=0 / ref=5 / no-allow-non-conformance / no-repeat-headers / annexb / no-aud / no-hrd / info / hash=0 / no-temporal-layers / open-gop / min-keyint=24 / keyint=240 / gop-lookahead=0 / bframes=6 / b-adapt=2 / b-pyramid / bframe-bias=0 / rc-lookahead=40 / lookahead-slices=0 / NTM4NzU=uuDQuD2mJt9fsCf / scenecut=40 / hist-scenecut=0 / radl=0 / no-splice / no-intra-refresh / ctu=32 / min-cu-size=8 / no-rect / no-amp / max-tu-size=32 / tu-inter-depth=3 / tu-intra-depth=3 / limit-tu=4 / rdoq-level=2 / dynamic-rd=0.00 / no-ssim-rd / signhide / no-tskip / nr-intra=0 / nr-inter=0 / no-constrained-intra / no-strong-intra-smoothing / max-merge=4 / limit-refs=1 / limit-modes / me=3 / subme=4 / merange=25 / temporal-mvp / no-frame-dup / no-hme / weightp / weightb / no-analyze-src-pics / deblock=-3:-3 / no-sao / no-sao-non-deblock / rd=6 / selective-sao=0 / no-early-skip / rskip / no-fast-intra / no-tskip-fast / no-cu-lossless / b-intra / no-splitrd-skip / rdpenalty=0 / psy-rd=2.00 / psy-rdoq=1.00 / no-rd-refine / no-lossless / cbqpoffs=0 / crqpoffs=0 / rc=crf / crf=17.0 / qcomp=0.65 / qpstep=4 / stats-write=0 / stats-read=0 / vbv-maxrate=80000 / vbv-bufsize=80000 / vbv-init=0.9 / crf-max=0.0 / crf-min=0.0 / ipratio=1.40 / pbratio=1.30 / aq-mode=2 / aq-strength=0.85 / cutree / zone-count=0 / no-strict-cbr / qg-size=32 / no-rc-grain / qpmax=69 / qpmin=0 / no-const-vbv / sar=1 / overscan=0 / videoformat=5 / range=0 / colorprim=1 / transfer=1 / colormatrix=1 / chromaloc=0 / display-window=0 / cll=0,0 / min-luma=0 / max-luma=1023 / log2-max-poc-lsb=8 / vui-timing-info / vui-hrd-info / slices=1 / no-opt-qp-pps / no-opt-ref-list-length-pps / no-multi-pass-opt-rps / scenecut-bias=0.05 / hist-threshold=0.03 / no-opt-cu-delta-qp / no-aq-motion / no-hdr10 / no-hdr10-opt / no-dhdr10-opt / no-idr-recovery-sei / analysis-reuse-level=0 / analysis-save-reuse-level=0 / analysis-load-reuse-level=0 / scale-factor=0 / refine-intra=0 / refine-inter=0 / refine-mv=1 / refine-ctu-distortion=0 / no-limit-sao / ctu-info=0 / no-lowpass-dct / refine-analysis-type=0 / copy-pic=1 / max-ausize-factor=1.0 / no-dynamic-refine / no-single-sei / no-hevc-aq / no-svt / no-field / qp-adaptation-range=1.00 / no-scenecut-aware-qpconformance-window-offsets / right=0 / bottom=0 / NTM4NzU= / decoder-max-rate=0
  35. Language                                 : English
  36. Default                                  : Yes
  37. Forced                                   : No
  38. Color range                              : Limited
  39. Color primaries                          : BT.709
  40. Transfer characteristics                 : BT.709
  41. Matrix coefficients                      : BT.709
  42. Audio #1
  43. ID                                       : 2
  44. Format                                   : DTS XLL
  45. Format/Info                              : Digital Theater Systems
  46. Commercial name                          : DTS-HD Master Audio
  47. Codec ID                                 : A_DTS
  48. Duration                                 : 1 h 36 min
  49. Bit rate mode                            : Variable
  50. Bit rate                                 : 1 357 kb/s
  51. Channel(s)                               : 2 channels
  52. Channel layout                           : L R
  53. Sampling rate                            : 48.0 kHz
  54. Frame rate                               : 93.750 FPS (512 SPF)
  55. Bit depth                                : 24 bits
  56. Compression mode                         : Lossless
  57. Stream size                              : 934 MiB (11%)
  58. Title                                    : Cantonese DTS-HD Master Audio 2.0 @ 1358 kbps
  59. Language                                 : Chinese
  60. Default                                  : Yes
  61. Forced                                   : No
  62. Audio #2
  63. ID                                       : 3
  64. Format                                   : DTS XLL
  65. Format/Info                              : Digital Theater Systems
  66. Commercial name                          : DTS-HD Master Audio
  67. Codec ID                                 : A_DTS
  68. Duration                                 : 1 h 36 min
  69. Bit rate mode                            : Variable
  70. Bit rate                                 : 1 399 kb/s
  71. Channel(s)                               : 2 channels
  72. Channel layout                           : L R
  73. Sampling rate                            : 48.0 kHz
  74. Frame rate                               : 93.750 FPS (512 SPF)
  75. Bit depth                                : 24 bits
  76. Compression mode                         : Lossless
  77. Stream size                              : 963 MiB (11%)
  78. Title                                    : Mandarin DTS-HD Master Audio 2.0 @ 1400 kbps
  79. Language                                 : Chinese
  80. Default                                  : No
  81. Forced                                   : No
  82. Text #1
  83. ID                                       : 4
  84. Format                                   : PGS
  85. Codec ID                                 : S_HDMV/PGS
  86. Codec ID/Info                            : Picture based subtitle format used on BDs/HD-DVDs
  87. Duration                                 : 1 h 34 min
  88. Bit rate                                 : 40.9 kb/s
  89. Count of elements                        : 2733
  90. Stream size                              : 27.8 MiB (0%)
  91. Title                                    : Cht/SUP  原盘繁体
  92. Language                                 : Chinese
  93. Default                                  : No
  94. Forced                                   : No
  95. Text #2
  96. ID                                       : 5
  97. Format                                   : PGS
  98. Codec ID                                 : S_HDMV/PGS
  99. Codec ID/Info                            : Picture based subtitle format used on BDs/HD-DVDs
  100. Duration                                 : 1 h 34 min
  101. Bit rate                                 : 40.3 kb/s
  102. Count of elements                        : 2743
  103. Stream size                              : 27.4 MiB (0%)
  104. Title                                    : Chs/SUP  原盘简体
  105. Language                                 : Chinese
  106. Default                                  : Yes
  107. Forced                                   : No
  108. Text #3
  109. ID                                       : 6
  110. Format                                   : PGS
  111. Codec ID                                 : S_HDMV/PGS
  112. Codec ID/Info                            : Picture based subtitle format used on BDs/HD-DVDs
  113. Duration                                 : 1 h 34 min
  114. Bit rate                                 : 47.1 kb/s
  115. Count of elements                        : 2741
  116. Stream size                              : 31.8 MiB (0%)
  117. Title                                    : Eng/SUP
  118. Language                                 : English
  119. Default                                  : No
  120. Forced                                   : No
  121. Menu
  122. 00:00:00.000                             : en:第 01 章
  123. 00:07:10.417                             : en:第 02 章
  124. 00:16:09.167                             : en:第 03 章
  125. 00:26:34.375                             : en:第 04 章
  126. 00:32:27.708                             : en:第 05 章
  127. 00:40:08.375                             : en:第 06 章
  128. 00:48:39.417                             : en:第 07 章
  129. 00:55:32.667                             : en:第 08 章
  130. 01:03:23.083                             : en:第 09 章
  131. 01:13:33.875                             : en:第 10 章
  132. 01:19:55.208                             : en:第 11 章
  133. 01:27:55.292                             : en:第 12 章
复制代码

















保举请利用qBittorrent,utorrent,transmission等标准BT软件下载!以获得最快速度。奉求保种!





回复

使用道具 举报

懒得打字嘛,点击右侧快捷回复 【右侧内容,后台自定义】
您需要登录后才可以回帖 登录 | 立即加入

本版积分规则

Archiver|小黑屋| 蓝光电影网 |网站地图

Copyright © 2021 Comsenz Inc. Powered by 蓝光电影网

蓝光电影网

本站内容由用户自主分享和转载自互联网,转载目的在于传递更多信息,并不代表本网赞同其观点和对其真实性负责。

如有侵权、违反国家法律政策行为,请联系我们,我们会第一时间及时清除和处理!

举报反馈邮箱:[email protected]

快速回复 返回顶部 返回列表