找回密码

蓝光电影网

查看: 154|回复: 0

[剧情] 最好的我们[国语音轨/简英字幕].My.Best.Summer.2019.BluRay.1080p.DTS-HD.MA5.1.x265.10bit-ALT 7.73GB

[复制链接]
蓝光币
8
发表于 2022-7-27 02:17:25 | 显示全部楼层 |阅读模式


◎译  名 最好的我们 / 最好的我们电影版 / My Best Summer
◎年  代 2019
◎产  地 中国大陆
◎类  别 剧情 / 恋爱
◎语  言 汉语普通话
◎上映日期 2019-06-06(中国大陆)
◎IMDb链接 https://www.imdb.com/title/tt10195976/
◎豆瓣评分 5.1/10 (108844人评价)
◎豆瓣链接 https://movie.douban.com/subject/26266919/
◎片  长 110分钟
◎导  演 章笛沙 Disha Zhang
◎编  剧 章笛沙 Disha Zhang
       黄斌 Bin Huang
       黄墨奇  (id:1418999)
       八月长安 Wanhui Liu
◎演  员 陈飞宇 Feiyu Chen
       何蓝逗 Lan He
       惠英红 Kara Wai Ying Hung
       陶慧敏 Huimin Tao
       汪苏泷 Sulong Wang
       董力 Li Dong
       蒋紫嫣 Ziyan Jiang
       周楚濋 Chu-chu Zhou
       方文强 Wenqiang Fang
       王初伊 Lingyu Wang
       高文峰 Wending Gao
       陈帅 Shuai Chen
       秦昊 Jeff Qin
       张小厚 Xiaohou Zhang
       许梦圆 Mengyuan Xu
       喇培康 Peikang La
       黄斌 Bin Huang
       龚宇 Yu Gong
       江平 Ping Jiang
       赵海城 Haicheng Zhao
       陈聪聪 Congcong Chen
       许建海 Jianhai Xu
       亚宁 Ning Ya
       康利 Li Kang
       陈建骐 Chien-Ci Chen
       邓旭 Xu Deng
       奚仲文 Chung-Man Hai
       王丹戎 Danrong Wang
       海瑞 Pino.Rea
◎简  介
  耿耿(何蓝逗 饰)是一位身手非常精湛的女摄影师,在门生时代,她有过一段无疾而终的青涩爱情,这段爱情至今仍然深深的影响着耿耿。时候转回数年前,彼时的耿耿还是身穿校服的懵懂少女,在教员的放置下,她和黉舍里成就最好的帅气男孩余淮(陈飞宇 饰)成为了同桌,他们一个是学渣,一个是学霸,互补的性情令两人之间很快就碰撞出了火花。                                    
                                随着时候的推移,耿耿和余淮的豪情从最初的友谊一步一步的长大,两人许下了美好的约定,约好了考入同一所城市的同一间大学。但是,在约定之日的那一天到来之时,余淮居然人世蒸发了,今后音信全无。
◎获奖情况 (共1项)
  第11届澳门国际电影节 (2019)
  金莲花奖 演员新人奖
   └──陈飞宇
  1. ##### MediaInfo ######
  2. General
  3. Unique ID                                : 228246841197954491982792281663287039992 (0xABB6BE1C2E19A134BC2EF87076BF97F8)
  4. Complete name                            : My.Best.Summer.2019.BluRay.1080p.DTS-HD.MA5.1.x265.10bit-ALT.mkv
  5. Format                                   : Matroska
  6. Format version                           : Version 4
  7. File size                                : 7.73 GiB
  8. Duration                                 : 1 h 49 min
  9. Overall bit rate mode                    : Variable
  10. Overall bit rate                         : 10.1 Mb/s
  11. Encoded date                             : UTC 2021-11-25 11:17:23
  12. Writing application                      : mkvmerge v49.0.0 ('Sick Of Losing Soulmates') 64-bit
  13. Writing library                          : libebml v1.4.0 + libmatroska v1.6.1
  14. Video
  15. ID                                       : 1
  16. Format                                   : HEVC
  17. Format/Info                              : High Efficiency Video Coding
  18. Format profile                           : Main [email protected]@High
  19. Codec ID                                 : V_MPEGH/ISO/HEVC
  20. Duration                                 : 1 h 49 min
  21. Bit rate                                 : 6 121 kb/s
  22. Width                                    : 1 920 pixels
  23. Height                                   : 722 pixels
  24. Display aspect ratio                     : 2.659
  25. Frame rate mode                          : Constant
  26. Frame rate                               : 24.000 FPS
  27. Color space                              : YUV
  28. Chroma subsampling                       : 4:2:0
  29. Bit depth                                : 10 bits
  30. Bits/(Pixel*Frame)                       : 0.184
  31. Stream size                              : 4.67 GiB (60%)
  32. Title                                    : HEVC, [email protected]@High, 24 fps @6120 kbps
  33. Writing library                          : x265 3.4+14-gd419c7152:[Windows][GCC 10.2.0][64 bit] 10bit
  34. Encoding settings                        : cpuid=538751111039 / frame-threads=3 / numa-pools=8 / wpp / pmode / pme / no-psnr / no-ssim / log-level=2 / input-csp=1 / input-res=1920x722 / interlace=0 / total-frames=157344 / level-idc=51 / high-tier=1 / uhd-bd=0 / ref=5 / no-allow-non-conformance / no-repeat-headers / annexb / no-aud / no-hrd / info / hash=0 / no-temporal-layers / open-gop / min-keyint=24 / keyint=240 / gop-lookahead=0 / bframes=6 / b-adapt=2 / b-pyramid / bframe-bias=0 / rc-lookahead=40 / lookahead-slices=0 / NTM4NzU=uuDQuD2mJt9fsCf / scenecut=40 / hist-scenecut=0 / radl=0 / no-splice / no-intra-refresh / ctu=32 / min-cu-size=8 / no-rect / no-amp / max-tu-size=32 / tu-inter-depth=3 / tu-intra-depth=3 / limit-tu=4 / rdoq-level=2 / dynamic-rd=0.00 / no-ssim-rd / signhide / no-tskip / nr-intra=0 / nr-inter=0 / no-constrained-intra / no-strong-intra-smoothing / max-merge=4 / limit-refs=1 / limit-modes / me=3 / subme=4 / merange=25 / temporal-mvp / no-frame-dup / no-hme / weightp / weightb / no-analyze-src-pics / deblock=-3:-3 / no-sao / no-sao-non-deblock / rd=6 / selective-sao=0 / no-early-skip / rskip / no-fast-intra / no-tskip-fast / no-cu-lossless / b-intra / no-splitrd-skip / rdpenalty=0 / psy-rd=2.00 / psy-rdoq=1.00 / no-rd-refine / no-lossless / cbqpoffs=0 / crqpoffs=0 / rc=crf / crf=17.0 / qcomp=0.65 / qpstep=4 / stats-write=0 / stats-read=0 / vbv-maxrate=80000 / vbv-bufsize=80000 / vbv-init=0.9 / crf-max=0.0 / crf-min=0.0 / ipratio=1.40 / pbratio=1.30 / aq-mode=2 / aq-strength=0.85 / cutree / zone-count=0 / no-strict-cbr / qg-size=32 / no-rc-grain / qpmax=69 / qpmin=0 / no-const-vbv / sar=1 / overscan=0 / videoformat=5 / range=0 / colorprim=1 / transfer=1 / colormatrix=1 / chromaloc=0 / display-window=0 / cll=0,0 / min-luma=0 / max-luma=1023 / log2-max-poc-lsb=8 / vui-timing-info / vui-hrd-info / slices=1 / no-opt-qp-pps / no-opt-ref-list-length-pps / no-multi-pass-opt-rps / scenecut-bias=0.05 / hist-threshold=0.03 / no-opt-cu-delta-qp / no-aq-motion / no-hdr10 / no-hdr10-opt / no-dhdr10-opt / no-idr-recovery-sei / analysis-reuse-level=0 / analysis-save-reuse-level=0 / analysis-load-reuse-level=0 / scale-factor=0 / refine-intra=0 / refine-inter=0 / refine-mv=1 / refine-ctu-distortion=0 / no-limit-sao / ctu-info=0 / no-lowpass-dct / refine-analysis-type=0 / copy-pic=1 / max-ausize-factor=1.0 / no-dynamic-refine / no-single-sei / no-hevc-aq / no-svt / no-field / qp-adaptation-range=1.00 / no-scenecut-aware-qpconformance-window-offsets / right=0 / bottom=0 / NTM4NzU= / decoder-max-rate=0
  35. Language                                 : English
  36. Default                                  : Yes
  37. Forced                                   : No
  38. Color range                              : Limited
  39. Color primaries                          : BT.709
  40. Transfer characteristics                 : BT.709
  41. Matrix coefficients                      : BT.709
  42. Audio
  43. ID                                       : 2
  44. Format                                   : DTS XLL
  45. Format/Info                              : Digital Theater Systems
  46. Commercial name                          : DTS-HD Master Audio
  47. Codec ID                                 : A_DTS
  48. Duration                                 : 1 h 49 min
  49. Bit rate mode                            : Variable
  50. Bit rate                                 : 3 946 kb/s
  51. Channel(s)                               : 6 channels
  52. Channel layout                           : C L R Ls Rs LFE
  53. Sampling rate                            : 48.0 kHz
  54. Frame rate                               : 93.750 FPS (512 SPF)
  55. Bit depth                                : 24 bits
  56. Compression mode                         : Lossless
  57. Stream size                              : 3.01 GiB (39%)
  58. Title                                    : Mandarin DTS-HD Master Audio 5.1 @ 3946 kbps
  59. Language                                 : Chinese
  60. Default                                  : Yes
  61. Forced                                   : No
  62. Text #1
  63. ID                                       : 3
  64. Format                                   : PGS
  65. Codec ID                                 : S_HDMV/PGS
  66. Codec ID/Info                            : Picture based subtitle format used on BDs/HD-DVDs
  67. Duration                                 : 1 h 45 min
  68. Bit rate                                 : 32.4 kb/s
  69. Count of elements                        : 2835
  70. Stream size                              : 24.4 MiB (0%)
  71. Title                                    : Eng/SUP
  72. Language                                 : English
  73. Default                                  : No
  74. Forced                                   : No
  75. Text #2
  76. ID                                       : 4
  77. Format                                   : PGS
  78. Codec ID                                 : S_HDMV/PGS
  79. Codec ID/Info                            : Picture based subtitle format used on BDs/HD-DVDs
  80. Duration                                 : 1 h 40 min
  81. Bit rate                                 : 25.9 kb/s
  82. Count of elements                        : 2752
  83. Stream size                              : 18.7 MiB (0%)
  84. Title                                    : Chs/SUP  原盘简体
  85. Language                                 : Chinese
  86. Default                                  : Yes
  87. Forced                                   : No
  88. Menu
  89. 00:00:00.000                             : en:绗?01 绔?
  90. 00:04:17.417                             : en:绗?02 绔?
  91. 00:09:17.417                             : en:绗?03 绔?
  92. 00:15:21.417                             : en:绗?04 绔?
  93. 00:20:55.000                             : en:绗?05 绔?
  94. 00:27:05.417                             : en:绗?06 绔?
  95. 00:31:45.000                             : en:绗?07 绔?
  96. 00:35:26.417                             : en:绗?08 绔?
  97. 00:41:26.417                             : en:绗?09 绔?
  98. 00:47:51.417                             : en:绗?10 绔?
  99. 00:55:17.417                             : en:绗?11 绔?
  100. 01:00:01.833                             : en:绗?12 绔?
  101. 01:06:26.417                             : en:绗?13 绔?
  102. 01:11:22.417                             : en:绗?14 绔?
  103. 01:15:50.417                             : en:绗?15 绔?
  104. 01:22:34.417                             : en:绗?16 绔?
  105. 01:27:04.417                             : en:绗?17 绔?
  106. 01:33:28.417                             : en:绗?18 绔?
  107. 01:39:13.417                             : en:绗?19 绔?
  108. 01:43:04.417                             : en:绗?20 绔?
复制代码

















保举请利用qBittorrent,utorrent,transmission等标准BT软件下载!以获得最快速度。奉求保种!





回复

使用道具 举报

懒得打字嘛,点击右侧快捷回复 【右侧内容,后台自定义】
您需要登录后才可以回帖 登录 | 立即加入

本版积分规则

Archiver|小黑屋| 蓝光电影网 |网站地图

Copyright © 2021 Comsenz Inc. Powered by 蓝光电影网

蓝光电影网

本站内容由用户自主分享和转载自互联网,转载目的在于传递更多信息,并不代表本网赞同其观点和对其真实性负责。

如有侵权、违反国家法律政策行为,请联系我们,我们会第一时间及时清除和处理!

举报反馈邮箱:[email protected]

快速回复 返回顶部 返回列表