找回密码

蓝光电影网

查看: 116|回复: 0

[剧情] 表哥到[国粤英多音轨/简繁英字幕].My.Cousin.The.Ghost.1987.BluRay.1080p.2Audio.DTS-HD.MA.2.0.x265.10bit-ALT 6.57GB

[复制链接]
蓝光币
8
发表于 2022-7-27 02:17:25 | 显示全部楼层 |阅读模式


◎译  名 表哥到 / My Cousin The Ghost / 本来我是鬼
◎年  代 1987
◎产  地 中国香港
◎类  别 笑剧 / 可骇 / 奇异
◎语  言 粤语
◎上映日期 1987-01-09
◎IMDb链接 https://www.imdb.com/title/tt0092650/
◎豆瓣评分 6.5/10 (2370人评价)
◎豆瓣链接 https://movie.douban.com/subject/1306677/
◎片  长 94 分钟
◎导  演 午马 Wu Ma
◎编  剧 张丽玲 Lai Ling Cheung
       司徒卓汉 Chuek-Hon Szeto
◎演  员 吴耀汉 Richard Ng
       钟镇涛 Kenny Bee
       午马 Wu Ma
       黄韵诗 Wan-Si Wong
       孟海 Hoi Mang
       太保 Po Tai
       田俊 James Tien Chun
       叶荣祖 Wing-Cho Yip
       田青 Ching Tien
       西瓜刨 Gwa-pau Sai
       丁羽 Yu Ting
       叶琐 So Yip
       洪金宝 Sammo Hung Kam-Bo
       聂安达 Anders Nelsson
       陈佩华 Jessica Chan Pooi-Wa
       周少龙 Shao Lung Chou
       叶国治 Kwok-Chi Yip
◎简  介
  吴德大(吴耀汉 饰)晚年移民英国,开餐馆为生。他为人刻薄,经常斥责羞辱不法移民英国的表弟小马(午马 饰)。两人争持时口无遮拦,致使阿马被遣送回港。                                    
                                阿马返港后与小勇(钟镇涛 饰)、Q仔(孟海 饰)、肥婆(李志杰 饰)、史太保(太保 饰)四个表弟供职同一家酒楼,因阿马的女友嫁给他人而激发一场误解,致使表兄弟们同时丢掉工作。众人失意之时,忽然接到德大行将返港的消息。阿马誓死不愿和阿大住同一间屋,四兄弟忽然想起他们曾将公寓一间屋子租给一位化装蜜斯玫瑰,而玫瑰已经好久不归。万般无法之下,他们决议扫除玫瑰的房间,驱逐表哥大的到来。可是……
  1. ##### MediaInfo ######
  2. General
  3. Unique ID                                : 334067298149825793511925817590463349194 (0xFB5305739243D426CB4F7F269D9C41CA)
  4. Complete name                            : My.Cousin.The.Ghost.1987.BluRay.1080p.2Audio.DTS-HD.MA.2.0.x265.10bit-ALT.mkv
  5. Format                                   : Matroska
  6. Format version                           : Version 4
  7. File size                                : 6.57 GiB
  8. Duration                                 : 1 h 35 min
  9. Overall bit rate mode                    : Variable
  10. Overall bit rate                         : 9 844 kb/s
  11. Encoded date                             : UTC 2021-12-29 12:10:13
  12. Writing application                      : mkvmerge v49.0.0 ('Sick Of Losing Soulmates') 64-bit
  13. Writing library                          : libebml v1.4.0 + libmatroska v1.6.1
  14. Video
  15. ID                                       : 1
  16. Format                                   : HEVC
  17. Format/Info                              : High Efficiency Video Coding
  18. Format profile                           : Main [email protected]@High
  19. Codec ID                                 : V_MPEGH/ISO/HEVC
  20. Duration                                 : 1 h 35 min
  21. Bit rate                                 : 7 499 kb/s
  22. Width                                    : 1 920 pixels
  23. Height                                   : 1 080 pixels
  24. Display aspect ratio                     : 16:9
  25. Frame rate mode                          : Constant
  26. Frame rate                               : 24.000 FPS
  27. Color space                              : YUV
  28. Chroma subsampling                       : 4:2:0
  29. Bit depth                                : 10 bits
  30. Bits/(Pixel*Frame)                       : 0.151
  31. Stream size                              : 5.01 GiB (76%)
  32. Title                                    : HEVC, [email protected]@High, 24 fps @ 7498 kbps
  33. Writing library                          : x265 3.4+14-gd419c7152:[Windows][GCC 10.2.0][64 bit] 10bit
  34. Encoding settings                        : cpuid=538751111039 / frame-threads=4 / numa-pools=16 / wpp / pmode / pme / no-psnr / no-ssim / log-level=2 / input-csp=1 / input-res=1920x1080 / interlace=0 / total-frames=137628 / level-idc=51 / high-tier=1 / uhd-bd=0 / ref=5 / no-allow-non-conformance / no-repeat-headers / annexb / no-aud / no-hrd / info / hash=0 / no-temporal-layers / open-gop / min-keyint=24 / keyint=240 / gop-lookahead=0 / bframes=6 / b-adapt=2 / b-pyramid / bframe-bias=0 / rc-lookahead=40 / lookahead-slices=0 / NTM4NzU=uuDQuD2mJt9fsCf / scenecut=40 / hist-scenecut=0 / radl=0 / no-splice / no-intra-refresh / ctu=32 / min-cu-size=8 / no-rect / no-amp / max-tu-size=32 / tu-inter-depth=3 / tu-intra-depth=3 / limit-tu=4 / rdoq-level=2 / dynamic-rd=0.00 / no-ssim-rd / signhide / no-tskip / nr-intra=0 / nr-inter=0 / no-constrained-intra / no-strong-intra-smoothing / max-merge=4 / limit-refs=1 / limit-modes / me=3 / subme=4 / merange=25 / temporal-mvp / no-frame-dup / no-hme / weightp / weightb / no-analyze-src-pics / deblock=-3:-3 / no-sao / no-sao-non-deblock / rd=6 / selective-sao=0 / no-early-skip / rskip / no-fast-intra / no-tskip-fast / no-cu-lossless / b-intra / no-splitrd-skip / rdpenalty=0 / psy-rd=2.00 / psy-rdoq=1.00 / no-rd-refine / no-lossless / cbqpoffs=0 / crqpoffs=0 / rc=crf / crf=17.0 / qcomp=0.65 / qpstep=4 / stats-write=0 / stats-read=0 / vbv-maxrate=80000 / vbv-bufsize=80000 / vbv-init=0.9 / crf-max=0.0 / crf-min=0.0 / ipratio=1.40 / pbratio=1.30 / aq-mode=2 / aq-strength=0.85 / cutree / zone-count=0 / no-strict-cbr / qg-size=32 / no-rc-grain / qpmax=69 / qpmin=0 / no-const-vbv / sar=1 / overscan=0 / videoformat=5 / range=0 / colorprim=1 / transfer=1 / colormatrix=1 / chromaloc=0 / display-window=0 / cll=0,0 / min-luma=0 / max-luma=1023 / log2-max-poc-lsb=8 / vui-timing-info / vui-hrd-info / slices=1 / no-opt-qp-pps / no-opt-ref-list-length-pps / no-multi-pass-opt-rps / scenecut-bias=0.05 / hist-threshold=0.03 / no-opt-cu-delta-qp / no-aq-motion / no-hdr10 / no-hdr10-opt / no-dhdr10-opt / no-idr-recovery-sei / analysis-reuse-level=0 / analysis-save-reuse-level=0 / analysis-load-reuse-level=0 / scale-factor=0 / refine-intra=0 / refine-inter=0 / refine-mv=1 / refine-ctu-distortion=0 / no-limit-sao / ctu-info=0 / no-lowpass-dct / refine-analysis-type=0 / copy-pic=1 / max-ausize-factor=1.0 / no-dynamic-refine / no-single-sei / no-hevc-aq / no-svt / no-field / qp-adaptation-range=1.00 / no-scenecut-aware-qpconformance-window-offsets / right=0 / bottom=0 / NTM4NzU= / decoder-max-rate=0
  35. Language                                 : English
  36. Default                                  : Yes
  37. Forced                                   : No
  38. Color range                              : Limited
  39. Color primaries                          : BT.709
  40. Transfer characteristics                 : BT.709
  41. Matrix coefficients                      : BT.709
  42. Audio #1
  43. ID                                       : 2
  44. Format                                   : DTS XLL
  45. Format/Info                              : Digital Theater Systems
  46. Commercial name                          : DTS-HD Master Audio
  47. Codec ID                                 : A_DTS
  48. Duration                                 : 1 h 35 min
  49. Bit rate mode                            : Variable
  50. Bit rate                                 : 1 088 kb/s
  51. Channel(s)                               : 2 channels
  52. Channel layout                           : L R
  53. Sampling rate                            : 48.0 kHz
  54. Frame rate                               : 93.750 FPS (512 SPF)
  55. Bit depth                                : 24 bits
  56. Compression mode                         : Lossless
  57. Stream size                              : 743 MiB (11%)
  58. Title                                    : Cantonese DTS-HD Master Audio 2.0 @ 1089 kbps
  59. Language                                 : Chinese
  60. Default                                  : Yes
  61. Forced                                   : No
  62. Audio #2
  63. ID                                       : 3
  64. Format                                   : DTS XLL
  65. Format/Info                              : Digital Theater Systems
  66. Commercial name                          : DTS-HD Master Audio
  67. Codec ID                                 : A_DTS
  68. Duration                                 : 1 h 35 min
  69. Bit rate mode                            : Variable
  70. Bit rate                                 : 1 126 kb/s
  71. Channel(s)                               : 2 channels
  72. Channel layout                           : L R
  73. Sampling rate                            : 48.0 kHz
  74. Frame rate                               : 93.750 FPS (512 SPF)
  75. Bit depth                                : 24 bits
  76. Compression mode                         : Lossless
  77. Stream size                              : 769 MiB (11%)
  78. Title                                    : Mandarin DTS-HD Master Audio 2.0 @ 1127 kbps
  79. Language                                 : Chinese
  80. Default                                  : No
  81. Forced                                   : No
  82. Text #1
  83. ID                                       : 4
  84. Format                                   : PGS
  85. Codec ID                                 : S_HDMV/PGS
  86. Codec ID/Info                            : Picture based subtitle format used on BDs/HD-DVDs
  87. Duration                                 : 1 h 30 min
  88. Bit rate                                 : 46.4 kb/s
  89. Count of elements                        : 2200
  90. Stream size                              : 30.2 MiB (0%)
  91. Title                                    : Cht/SUP  原盘繁体
  92. Language                                 : Chinese
  93. Default                                  : No
  94. Forced                                   : No
  95. Text #2
  96. ID                                       : 5
  97. Format                                   : PGS
  98. Codec ID                                 : S_HDMV/PGS
  99. Codec ID/Info                            : Picture based subtitle format used on BDs/HD-DVDs
  100. Duration                                 : 1 h 30 min
  101. Bit rate                                 : 45.3 kb/s
  102. Count of elements                        : 2200
  103. Stream size                              : 29.5 MiB (0%)
  104. Title                                    : Chs/SUP  原盘简体
  105. Language                                 : Chinese
  106. Default                                  : Yes
  107. Forced                                   : No
  108. Text #3
  109. ID                                       : 6
  110. Format                                   : PGS
  111. Codec ID                                 : S_HDMV/PGS
  112. Codec ID/Info                            : Picture based subtitle format used on BDs/HD-DVDs
  113. Duration                                 : 1 h 30 min
  114. Bit rate                                 : 42.0 kb/s
  115. Count of elements                        : 2200
  116. Stream size                              : 27.3 MiB (0%)
  117. Title                                    : Eng/SUP
  118. Language                                 : English
  119. Default                                  : No
  120. Forced                                   : No
  121. Menu
  122. 00:00:00.000                             : en:第 01 章
  123. 00:07:32.792                             : en:第 02 章
  124. 00:16:09.458                             : en:第 03 章
  125. 00:24:15.750                             : en:第 04 章
  126. 00:33:43.417                             : en:第 05 章
  127. 00:39:10.250                             : en:第 06 章
  128. 00:47:37.083                             : en:第 07 章
  129. 00:56:02.167                             : en:第 08 章
  130. 01:03:23.167                             : en:第 09 章
  131. 01:10:55.833                             : en:第 10 章
  132. 01:18:39.208                             : en:第 11 章
  133. 01:27:03.708                             : en:第 12 章
复制代码

















保举请利用qBittorrent,utorrent,transmission等标准BT软件下载!以获得最快速度。奉求保种!





回复

使用道具 举报

懒得打字嘛,点击右侧快捷回复 【右侧内容,后台自定义】
您需要登录后才可以回帖 登录 | 立即加入

本版积分规则

Archiver|小黑屋| 蓝光电影网 |网站地图

Copyright © 2021 Comsenz Inc. Powered by 蓝光电影网

蓝光电影网

本站内容由用户自主分享和转载自互联网,转载目的在于传递更多信息,并不代表本网赞同其观点和对其真实性负责。

如有侵权、违反国家法律政策行为,请联系我们,我们会第一时间及时清除和处理!

举报反馈邮箱:[email protected]

快速回复 返回顶部 返回列表