找回密码

蓝光电影网

查看: 89|回复: 0

[剧情] 魔女[简繁英字幕].The.Witch.Part.1.The.Subversion.2018.1080p.x265.10bit.DDP.5.1-MiniHD 8.81GB

[复制链接]
蓝光币
7
发表于 2022-7-27 02:17:27 | 显示全部楼层 |阅读模式


◎标  题 魔女
◎译  名 魔女首部曲:诞生(台) / 魔女首部曲:毀坏(港) / The Witch : Part 1. The Subversion
◎片  名 마녀
◎年  代 2018
◎产  地 韩国
◎类  别 行动 / 悬疑
◎语  言 韩语
◎上映日期 2018-06-27(韩国)
◎IMDb评分 7.2/10 (8607人评价)
◎IMDb链接 https://www.imdb.com/title/tt8574252/
◎豆瓣评分 7.6/10 (98323人评价)
◎豆瓣链接 https://movie.douban.com/subject/26602900/
◎片  长 125分钟
◎导  演 朴勋政 Hoon-jung Park
◎编  剧 朴勋政 Hoon-jung Park
◎演  员 金多美 Da-mi Kim
       赵敏修 Min-su Jo
       朴熙顺 Hee soon Park
       崔宇植 Woo-Sik Choi
       高旻示 Min-si Go
       吴美姬 Mi-hee Oh
       崔政宇 Jung-woo Choi
       多恩 Daeun
       金秉玉 Byeong-ok Kim
       李柱元 Ju-won Lee
       金河娜 Ha-na Kim
       李基英 Ki-young Lee
       权泰元 Tae-won Kwon
       李时勋 Si-hoon Lee
       白承哲 Seung-chul Baek
       袁民奎 Woo Min-kyu
       金宗勋 Jong-hoon Kim
       徐翰洁 Han-gyeol Seo
       吕茂英 Moo-yeong Yeo
       朴向勋 Sang-hoon Park
       金道爀 Do-hyeok Kim
       高奉久 Bong-goo Go
        Jeong-goo Seo Jeong-goo Seo
       金孝珍 JeA
       Seung-yoon Han  Seung-yoon Han
       Hyeok-seong Kwon  Hyeok-seong Kwon
       Gwang-hee Jo Gwang-hee Jo
       金永 Kim Yoo
       崔贤钟 Hyeon-jong Choi
       申载敏 Jae-min Sin
       金基政 Gi-jeong Kim
       李夏英 Ha-yeong Lee
       李时宇 Si-woo Lee
       李圣贤 Mowg
       宋亨秀 Hyeong-soo Song
       郑雨琳 Woo-rim Jung
       金龙云 Yong-woon Kim
       玄奉植 Bong-shik Hyun
       白钟焕 Baek Jong-hwan
       郭振锡 Jin-seok Kwak
◎标  签 韩国 / 行动 / 暴力 / 血腥 / 科幻 / 悬疑 / 犯罪 / 人性
◎简  介
    该电影报告了10年前在一路希奇的变乱中单独生还的失忆少女子允,在一对老佳耦的抚养下长大。为了补助家用,子允加入了某档电视节目,但让她没想到的是,就在节目播出后,起头有各类希奇的人出现在她眼前……
  1. ##### MediaInfo ######
  2. General
  3. Unique ID                                : 143520554836113673886325775708905608506 (0x6BF90DACE4B6E83E87A46933C57D153A)
  4. Complete name                            : The.Witch.Part.1.The.Subversion.2018.1080p.x265.10bit.DDP.5.1-MiniHD.mkv
  5. Format                                   : Matroska
  6. Format version                           : Version 4
  7. File size                                : 8.80 GiB
  8. Duration                                 : 2 h 5 min
  9. Overall bit rate                         : 10.0 Mb/s
  10. Movie name                               : The Witch Part 1 The Subversion
  11. Encoded date                             : UTC 2021-02-04 12:50:29
  12. Writing application                      : mkvmerge v53.0.0 ('Fool's Gold') 64-bit
  13. Writing library                          : libebml v1.4.1 + libmatroska v1.6.2
  14. Cover                                    : Yes
  15. Attachments                              : cover.jpg
  16. Video
  17. ID                                       : 1
  18. Format                                   : HEVC
  19. Format/Info                              : High Efficiency Video Coding
  20. Format profile                           : Main [email protected]@High
  21. Codec ID                                 : V_MPEGH/ISO/HEVC
  22. Duration                                 : 2 h 5 min
  23. Bit rate                                 : 8 966 kb/s
  24. Width                                    : 1 920 pixels
  25. Height                                   : 804 pixels
  26. Display aspect ratio                     : 2.40:1
  27. Frame rate mode                          : Constant
  28. Frame rate                               : 23.976 (24000/1001/53875) FPS
  29. Color space                              : YUV
  30. Chroma subsampling                       : 4:2:0
  31. Bit depth                                : 10 bits
  32. Bits/(Pixel*Frame)                       : 0.242
  33. Stream size                              : 7.87 GiB (89%)
  34. Writing library                          : x265 3.4+33-606265ac7:[Windows][MSVC 1928][64 bit] 10bit
  35. Encoding settings                        : cpuid=538751111039 / frame-threads=3 / numa-pools=14 / wpp / pmode / no-pme / no-psnr / no-ssim / log-level=2 / input-csp=1 / input-res=1920x804 / interlace=0 / total-frames=180816 / level-idc=0 / high-tier=1 / uhd-bd=0 / ref=4 / no-allow-non-conformance / no-repeat-headers / annexb / no-aud / no-hrd / info / hash=0 / no-temporal-layers / no-open-gop / min-keyint=1 / keyint=250 / gop-lookahead=0 / bframes=6 / b-adapt=2 / b-pyramid / bframe-bias=0 / rc-lookahead=80 / lookahead-slices=0 / NTM4NzU=uuDQuD2mJt9fsCf / scenecut=40 / hist-scenecut=0 / radl=0 / no-splice / no-intra-refresh / ctu=32 / min-cu-size=8 / no-rect / no-amp / max-tu-size=32 / tu-inter-depth=4 / tu-intra-depth=4 / limit-tu=0 / rdoq-level=2 / dynamic-rd=0.00 / no-ssim-rd / signhide / no-tskip / nr-intra=0 / nr-inter=0 / no-constrained-intra / strong-intra-smoothing / max-merge=5 / limit-refs=0 / no-limit-modes / me=3 / subme=7 / merange=44 / temporal-mvp / no-frame-dup / no-hme / weightp / weightb / no-analyze-src-pics / deblock=-3:-3 / no-sao / no-sao-non-deblock / rd=4 / selective-sao=0 / no-early-skip / no-rskip / no-fast-intra / no-tskip-fast / no-cu-lossless / b-intra / no-splitrd-skip / rdpenalty=0 / psy-rd=1.50 / psy-rdoq=1.00 / no-rd-refine / no-lossless / cbqpoffs=-2 / crqpoffs=-2 / rc=crf / crf=16.5 / qcomp=0.65 / qpstep=4 / stats-write=0 / stats-read=0 / vbv-maxrate=160000 / vbv-bufsize=160000 / vbv-init=0.9 / min-vbv-fullness=50.0 / max-vbv-fullness=80.0 / crf-max=0.0 / crf-min=0.0 / ipratio=1.30 / pbratio=1.20 / aq-mode=2 / aq-strength=0.90 / no-cutree / zone-count=0 / no-strict-cbr / qg-size=8 / no-rc-grain / qpmax=69 / qpmin=0 / no-const-vbv / sar=0 / overscan=0 / videoformat=5 / range=0 / colorprim=1 / transfer=1 / colormatrix=1 / chromaloc=0 / display-window=0 / cll=0,0 / min-luma=0 / max-luma=1023 / log2-max-poc-lsb=8 / vui-timing-info / vui-hrd-info / slices=1 / no-opt-qp-pps / no-opt-ref-list-length-pps / no-multi-pass-opt-rps / scenecut-bias=0.05 / hist-threshold=0.03 / no-opt-cu-delta-qp / no-aq-motion / no-hdr10 / no-hdr10-opt / no-dhdr10-opt / no-idr-recovery-sei / analysis-reuse-level=0 / analysis-save-reuse-level=0 / analysis-load-reuse-level=0 / scale-factor=0 / refine-intra=0 / refine-inter=0 / refine-mv=1 / refine-ctu-distortion=0 / no-limit-sao / ctu-info=0 / no-lowpass-dct / refine-analysis-type=0 / copy-pic=1 / max-ausize-factor=1.0 / no-dynamic-refine / no-single-sei / no-hevc-aq / no-svt / no-field / qp-adaptation-range=1.00 / scenecut-aware-qp=0conformance-window-offsets / right=0 / bottom=0 / NTM4NzU= / decoder-max-rate=0 / no-vbv-live-multi-pass
  36. Default                                  : Yes
  37. Forced                                   : No
  38. Color range                              : Limited
  39. Color primaries                          : BT.709
  40. Transfer characteristics                 : BT.709
  41. Matrix coefficients                      : BT.709
  42. Audio
  43. ID                                       : 2
  44. Format                                   : E-AC-3
  45. Format/Info                              : Enhanced AC-3
  46. Commercial name                          : Dolby Digital Plus
  47. Codec ID                                 : A_EAC3
  48. Duration                                 : 2 h 5 min
  49. Bit rate mode                            : Constant
  50. Bit rate                                 : 1 023 kb/s
  51. Channel(s)                               : 6 channels
  52. Channel layout                           : L R C LFE Ls Rs
  53. Sampling rate                            : 48.0 kHz
  54. Frame rate                               : 93.750 FPS (512 SPF)
  55. Compression mode                         : Lossy
  56. Stream size                              : 920 MiB (10%)
  57. Language                                 : Korean
  58. Service kind                             : Complete Main
  59. Default                                  : Yes
  60. Forced                                   : No
  61. Text #1
  62. ID                                       : 3
  63. ID in the original source medium         : 4610 (0x1202)
  64. Format                                   : PGS
  65. Muxing mode                              : zlib
  66. Codec ID                                 : S_HDMV/PGS
  67. Codec ID/Info                            : Picture based subtitle format used on BDs/HD-DVDs
  68. Duration                                 : 2 h 1 min
  69. Bit rate                                 : 18.4 kb/s
  70. Count of elements                        : 2618
  71. Stream size                              : 16.0 MiB (0%)
  72. Title                                    : chs
  73. Language                                 : Chinese
  74. Default                                  : Yes
  75. Forced                                   : No
  76. Original source medium                   : Blu-ray
  77. Text #2
  78. ID                                       : 4
  79. ID in the original source medium         : 4611 (0x1203)
  80. Format                                   : PGS
  81. Muxing mode                              : zlib
  82. Codec ID                                 : S_HDMV/PGS
  83. Codec ID/Info                            : Picture based subtitle format used on BDs/HD-DVDs
  84. Duration                                 : 2 h 1 min
  85. Bit rate                                 : 18.9 kb/s
  86. Count of elements                        : 2618
  87. Stream size                              : 16.5 MiB (0%)
  88. Title                                    : cht
  89. Language                                 : Chinese
  90. Default                                  : No
  91. Forced                                   : No
  92. Original source medium                   : Blu-ray
  93. Text #3
  94. ID                                       : 5
  95. ID in the original source medium         : 4608 (0x1200)
  96. Format                                   : PGS
  97. Muxing mode                              : zlib
  98. Codec ID                                 : S_HDMV/PGS
  99. Codec ID/Info                            : Picture based subtitle format used on BDs/HD-DVDs
  100. Duration                                 : 1 h 58 min
  101. Bit rate                                 : 23.8 kb/s
  102. Count of elements                        : 2145
  103. Stream size                              : 20.2 MiB (0%)
  104. Title                                    : kor
  105. Language                                 : Korean
  106. Default                                  : No
  107. Forced                                   : No
  108. Original source medium                   : Blu-ray
  109. Text #4
  110. ID                                       : 6
  111. ID in the original source medium         : 4609 (0x1201)
  112. Format                                   : PGS
  113. Muxing mode                              : zlib
  114. Codec ID                                 : S_HDMV/PGS
  115. Codec ID/Info                            : Picture based subtitle format used on BDs/HD-DVDs
  116. Duration                                 : 2 h 2 min
  117. Bit rate                                 : 22.7 kb/s
  118. Count of elements                        : 2140
  119. Stream size                              : 19.8 MiB (0%)
  120. Title                                    : eng
  121. Language                                 : English
  122. Default                                  : No
  123. Forced                                   : No
  124. Original source medium                   : Blu-ray
  125. Menu
  126. 00:00:00.000                             : en:CHAPTER:01
  127. 00:10:41.557                             : en:CHAPTER:02
  128. 00:19:01.807                             : en:CHAPTER:03
  129. 00:28:10.146                             : en:CHAPTER:04
  130. 00:36:00.867                             : en:CHAPTER:05
  131. 00:43:33.110                             : en:CHAPTER:06
  132. 00:50:44.583                             : en:CHAPTER:07
  133. 00:55:10.348                             : en:CHAPTER:08
  134. 01:01:18.549                             : en:CHAPTER:09
  135. 01:08:49.375                             : en:CHAPTER:10
  136. 01:19:40.400                             : en:CHAPTER:11
  137. 01:29:09.719                             : en:CHAPTER:12
  138. 01:38:15.556                             : en:CHAPTER:13
  139. 01:45:25.277                             : en:CHAPTER:14
  140. 01:52:23.194                             : en:CHAPTER:15
  141. 01:59:22.780                             : en:CHAPTER:16
复制代码



保举请利用qBittorrent,utorrent,transmission等标准BT软件下载!以获得最快速度。奉求保种!





回复

使用道具 举报

懒得打字嘛,点击右侧快捷回复 【右侧内容,后台自定义】
您需要登录后才可以回帖 登录 | 立即加入

本版积分规则

Archiver|小黑屋| 蓝光电影网 |网站地图

Copyright © 2021 Comsenz Inc. Powered by 蓝光电影网

蓝光电影网

本站内容由用户自主分享和转载自互联网,转载目的在于传递更多信息,并不代表本网赞同其观点和对其真实性负责。

如有侵权、违反国家法律政策行为,请联系我们,我们会第一时间及时清除和处理!

举报反馈邮箱:[email protected]

快速回复 返回顶部 返回列表