找回密码

蓝光电影网

查看: 40|回复: 1

[剧情] 骡子[简繁英字幕].The.Mule.2018.BluRay.1080p.x265.10bit.DDP.5.1-MiniHD 6.71GB

[复制链接]
蓝光币
7
发表于 2022-7-27 02:17:33 | 显示全部楼层 |阅读模式


◎标  题 骡子
◎译  名 毒行侠(港) / 赌命运转手(台) / 走走私毒者
◎片  名 The Mule
◎年  代 2018
◎产  地 美国
◎类  别 剧情 / 犯罪
◎语  言 英语
◎上映日期 2019-08-26(中国大陆) / 2018-12-14(美国)
◎IMDb评分 7/10 (128135人评价)
◎IMDb链接 https://www.imdb.com/title/tt7959026/
◎豆瓣评分 7.9/10 (126507人评价)
◎豆瓣链接 https://movie.douban.com/subject/30135113/
◎片  长 116分钟 / 112分钟(中国大陆)
◎导  演 克林特·伊斯特伍德 Clint Eastwood
◎编  剧 尼克·申克 Nick Schenk
◎演  员 克林特·伊斯特伍德 Clint Eastwood
       布莱德利·库珀 Bradley Cooper
       劳伦斯·菲什伯恩 Laurence Fishburne
       迈克尔·佩纳 Michael Peña
       黛安·韦斯特 Dianne Wiest
       安迪·加西亚 Andy Garcia
       艾莉森·伊斯特伍德 Alison Eastwood
       泰莎·法米加 Taissa Farmiga
       伊格纳西奥·塞利齐奥 Ignacio Serricchio
       劳恩·迪恩 Loren Dean
       尤金·科德罗 Eugene Cordero
       理查德·赫德 Richard Herd
       乔·奈泽维奇 Joe Knezevich
       维克多·罗塞克 Victor Rasuk
       罗伯特·拉萨多 Robert LaSardo
       诺尔·古格雷米 Noel Gugliemi
       小克利夫顿·克林斯 Clifton Collins Jr.
       丹尼尔·蒙卡达 Daniel Moncada
       保罗·阿拉约 Paul Alayo
       卡里姆·J.格里梅斯 Kareem J. Grimes
       迭戈·卡塔诺 Diego Cataño
       迪伦·库斯曼 Dylan Kussman
       皮特·布里斯 Pete Burris
       曼尼·蒙塔纳 Manny Montana
       洛博·塞巴斯蒂安 Lobo Sebastian
       泰丝·马里斯·金凯德 Tess Malis Kincaid
       贝琪·阿尔特林格 Becky Altringer
       蒂莫西·卡尔 Timothy Carr
       吉尔·弗林特 Jill Flint
       凯蒂·吉尔 Katie Gill
       杰伦·戈登 Jaylon Gordon
       杰伊·古铁雷斯 Jay Gutierrez
       塞西尔·M·亨利 Cecil M. Henry
       雷·埃尔南德斯 Rey Hernandez
       肖恩·麦克米伦 Shaun McMillan
       德文·奥咯噔 Devon Ogden
       帕蒂·舍尔哈斯 Patti Schellhaas
       德里克·罗素 Derek Russo
       詹姆斯·威廉·巴拉德 James William Ballard
◎标  签 美国 / 犯罪 / 剧情 / 人性 / 实在改编 / 贩毒 / 老年 / 家庭
◎简  介
    厄尔(克林特·伊斯特伍德 Clint Eastwood 饰)是一位独居的八旬老人,正在面临很是严重的财政危机,他唯一的居处行将被拍卖用来抵扣债权,在这个节骨眼上,厄尔获得了一份司机的工作,但厄尔所要输送的却并非什么乘客,而是毒品。就这样,厄尔成为了墨西哥贩毒团体中的一员。                                                                      不能不认可,厄尔将这份工作完成的很是出色,出色到贩毒团体专门为他装备了对接职员。可就在厄尔的财政题目获得处理的同时,他的变态行为也遭到了美国缉毒局奸细科林(布莱德利·库珀 Bradley Cooper 饰)的留意。假如继续在法令的边沿试探,厄尔就有能够锒铛入狱,但假如就此金盆洗手,晓得太多奥秘的厄尔亦有能够被毒枭灭口。
  1. ##### MediaInfo ######
  2. General
  3. Unique ID                                : 230388921403916177352660805272800439133 (0xAD534AD17722BB77F971F927A119AB5D)
  4. Complete name                            : The.Mule.2018.BluRay.1080p.x265.10bit.DDP.5.1-MiniHD.mkv
  5. Format                                   : Matroska
  6. Format version                           : Version 4
  7. File size                                : 6.71 GiB
  8. Duration                                 : 1 h 56 min
  9. Overall bit rate                         : 8 248 kb/s
  10. Movie name                               : The Mule [2018] Blueyray 1080p - FRDS
  11. Encoded date                             : UTC 2021-05-05 12:43:19
  12. Writing application                      : mkvmerge v56.1.0 ('My Friend') 64-bit
  13. Writing library                          : libebml v1.4.2 + libmatroska v1.6.4
  14. Cover                                    : Yes
  15. Attachments                              : cover.jpg
  16. Video
  17. ID                                       : 1
  18. Format                                   : HEVC
  19. Format/Info                              : High Efficiency Video Coding
  20. Format profile                           : Main [email protected]@High
  21. Codec ID                                 : V_MPEGH/ISO/HEVC
  22. Duration                                 : 1 h 56 min
  23. Bit rate                                 : 7 134 kb/s
  24. Width                                    : 1 920 pixels
  25. Height                                   : 804 pixels
  26. Display aspect ratio                     : 2.40:1
  27. Frame rate mode                          : Constant
  28. Frame rate                               : 23.976 (24000/1001/53875) FPS
  29. Color space                              : YUV
  30. Chroma subsampling                       : 4:2:0
  31. Bit depth                                : 10 bits
  32. Bits/(Pixel*Frame)                       : 0.193
  33. Stream size                              : 5.80 GiB (86%)
  34. Writing library                          : x265 3.4+33-606265ac7:[Windows][MSVC 1928][64 bit] 10bit
  35. Encoding settings                        : cpuid=538751111039 / frame-threads=3 / numa-pools=14 / wpp / pmode / no-pme / no-psnr / no-ssim / log-level=2 / input-csp=1 / input-res=1920x804 / interlace=0 / total-frames=167533 / level-idc=0 / high-tier=1 / uhd-bd=0 / ref=4 / no-allow-non-conformance / no-repeat-headers / annexb / no-aud / no-hrd / info / hash=0 / no-temporal-layers / no-open-gop / min-keyint=1 / keyint=250 / gop-lookahead=0 / bframes=6 / b-adapt=2 / b-pyramid / bframe-bias=0 / rc-lookahead=80 / lookahead-slices=0 / NTM4NzU=uuDQuD2mJt9fsCf / scenecut=40 / hist-scenecut=0 / radl=0 / no-splice / no-intra-refresh / ctu=32 / min-cu-size=8 / no-rect / no-amp / max-tu-size=32 / tu-inter-depth=4 / tu-intra-depth=4 / limit-tu=0 / rdoq-level=2 / dynamic-rd=0.00 / no-ssim-rd / signhide / no-tskip / nr-intra=0 / nr-inter=0 / no-constrained-intra / strong-intra-smoothing / max-merge=5 / limit-refs=0 / no-limit-modes / me=3 / subme=7 / merange=44 / temporal-mvp / no-frame-dup / no-hme / weightp / weightb / no-analyze-src-pics / deblock=-3:-3 / no-sao / no-sao-non-deblock / rd=4 / selective-sao=0 / no-early-skip / no-rskip / no-fast-intra / no-tskip-fast / no-cu-lossless / b-intra / no-splitrd-skip / rdpenalty=0 / psy-rd=1.50 / psy-rdoq=1.00 / no-rd-refine / no-lossless / cbqpoffs=-2 / crqpoffs=-2 / rc=crf / crf=19.0 / qcomp=0.65 / qpstep=4 / stats-write=0 / stats-read=0 / vbv-maxrate=160000 / vbv-bufsize=160000 / vbv-init=0.9 / min-vbv-fullness=50.0 / max-vbv-fullness=80.0 / crf-max=0.0 / crf-min=0.0 / ipratio=1.30 / pbratio=1.20 / aq-mode=2 / aq-strength=0.90 / no-cutree / zone-count=0 / no-strict-cbr / qg-size=8 / no-rc-grain / qpmax=69 / qpmin=0 / no-const-vbv / sar=0 / overscan=0 / videoformat=5 / range=0 / colorprim=1 / transfer=1 / colormatrix=1 / chromaloc=0 / display-window=0 / cll=0,0 / min-luma=0 / max-luma=1023 / log2-max-poc-lsb=8 / vui-timing-info / vui-hrd-info / slices=1 / no-opt-qp-pps / no-opt-ref-list-length-pps / no-multi-pass-opt-rps / scenecut-bias=0.05 / hist-threshold=0.03 / no-opt-cu-delta-qp / no-aq-motion / no-hdr10 / no-hdr10-opt / no-dhdr10-opt / no-idr-recovery-sei / analysis-reuse-level=0 / analysis-save-reuse-level=0 / analysis-load-reuse-level=0 / scale-factor=0 / refine-intra=0 / refine-inter=0 / refine-mv=1 / refine-ctu-distortion=0 / no-limit-sao / ctu-info=0 / no-lowpass-dct / refine-analysis-type=0 / copy-pic=1 / max-ausize-factor=1.0 / no-dynamic-refine / no-single-sei / no-hevc-aq / no-svt / no-field / qp-adaptation-range=1.00 / scenecut-aware-qp=0conformance-window-offsets / right=0 / bottom=0 / NTM4NzU= / decoder-max-rate=0 / no-vbv-live-multi-pass
  36. Default                                  : Yes
  37. Forced                                   : No
  38. Color range                              : Limited
  39. Color primaries                          : BT.709
  40. Transfer characteristics                 : BT.709
  41. Matrix coefficients                      : BT.709
  42. Audio
  43. ID                                       : 2
  44. Format                                   : E-AC-3
  45. Format/Info                              : Enhanced AC-3
  46. Commercial name                          : Dolby Digital Plus
  47. Codec ID                                 : A_EAC3
  48. Duration                                 : 1 h 56 min
  49. Bit rate mode                            : Constant
  50. Bit rate                                 : 1 023 kb/s
  51. Channel(s)                               : 6 channels
  52. Channel layout                           : L R C LFE Ls Rs
  53. Sampling rate                            : 48.0 kHz
  54. Frame rate                               : 93.750 FPS (512 SPF)
  55. Compression mode                         : Lossy
  56. Stream size                              : 852 MiB (12%)
  57. Language                                 : English
  58. Service kind                             : Complete Main
  59. Default                                  : Yes
  60. Forced                                   : No
  61. Text #1
  62. ID                                       : 3
  63. ID in the original source medium         : 4608 (0x1200)
  64. Format                                   : PGS
  65. Muxing mode                              : zlib
  66. Codec ID                                 : S_HDMV/PGS
  67. Codec ID/Info                            : Picture based subtitle format used on BDs/HD-DVDs
  68. Duration                                 : 1 h 47 min
  69. Bit rate                                 : 41.0 kb/s
  70. Count of elements                        : 3402
  71. Stream size                              : 31.4 MiB (0%)
  72. Language                                 : English
  73. Default                                  : Yes
  74. Forced                                   : No
  75. Original source medium                   : Blu-ray
  76. Text #2
  77. ID                                       : 4
  78. ID in the original source medium         : 4611 (0x1203)
  79. Format                                   : PGS
  80. Muxing mode                              : zlib
  81. Codec ID                                 : S_HDMV/PGS
  82. Codec ID/Info                            : Picture based subtitle format used on BDs/HD-DVDs
  83. Duration                                 : 1 h 52 min
  84. Bit rate                                 : 29.9 kb/s
  85. Count of elements                        : 3219
  86. Stream size                              : 24.0 MiB (0%)
  87. Title                                    : chs
  88. Language                                 : Chinese
  89. Default                                  : No
  90. Forced                                   : No
  91. Original source medium                   : Blu-ray
  92. Text #3
  93. ID                                       : 5
  94. ID in the original source medium         : 4612 (0x1204)
  95. Format                                   : PGS
  96. Muxing mode                              : zlib
  97. Codec ID                                 : S_HDMV/PGS
  98. Codec ID/Info                            : Picture based subtitle format used on BDs/HD-DVDs
  99. Duration                                 : 1 h 52 min
  100. Bit rate                                 : 30.1 kb/s
  101. Count of elements                        : 3219
  102. Stream size                              : 24.2 MiB (0%)
  103. Title                                    : cht
  104. Language                                 : Chinese
  105. Default                                  : No
  106. Forced                                   : No
  107. Original source medium                   : Blu-ray
  108. Text #4
  109. ID                                       : 6
  110. ID in the original source medium         : 4613 (0x1205)
  111. Format                                   : PGS
  112. Muxing mode                              : zlib
  113. Codec ID                                 : S_HDMV/PGS
  114. Codec ID/Info                            : Picture based subtitle format used on BDs/HD-DVDs
  115. Duration                                 : 1 h 52 min
  116. Bit rate                                 : 52.6 kb/s
  117. Count of elements                        : 3219
  118. Stream size                              : 42.2 MiB (1%)
  119. Title                                    : chs&eng
  120. Language                                 : Chinese
  121. Default                                  : No
  122. Forced                                   : No
  123. Original source medium                   : Blu-ray
  124. Text #5
  125. ID                                       : 7
  126. ID in the original source medium         : 4614 (0x1206)
  127. Format                                   : PGS
  128. Muxing mode                              : zlib
  129. Codec ID                                 : S_HDMV/PGS
  130. Codec ID/Info                            : Picture based subtitle format used on BDs/HD-DVDs
  131. Duration                                 : 1 h 52 min
  132. Bit rate                                 : 52.8 kb/s
  133. Count of elements                        : 3219
  134. Stream size                              : 42.4 MiB (1%)
  135. Title                                    : cht&eng
  136. Language                                 : Chinese
  137. Default                                  : No
  138. Forced                                   : No
  139. Original source medium                   : Blu-ray
  140. Menu
  141. 00:00:00.000                             : CHAPTER:01
  142. 00:06:45.822                             : CHAPTER:02
  143. 00:15:27.885                             : CHAPTER:03
  144. 00:23:24.236                             : CHAPTER:04
  145. 00:32:22.482                             : CHAPTER:05
  146. 00:40:29.885                             : CHAPTER:06
  147. 00:48:20.564                             : CHAPTER:07
  148. 00:57:55.346                             : CHAPTER:08
  149. 01:07:17.408                             : CHAPTER:09
  150. 01:16:17.364                             : CHAPTER:10
  151. 01:23:18.785                             : CHAPTER:11
  152. 01:32:20.159                             : CHAPTER:12
  153. 01:39:12.947                             : CHAPTER:13
  154. 01:46:17.579                             : CHAPTER:14
  155. 01:48:52.442                             : CHAPTER:15
复制代码



保举请利用qBittorrent,utorrent,transmission等标准BT软件下载!以获得最快速度。奉求保种!





回复

使用道具 举报

蓝光币
77
发表于 2022-7-27 22:35:56 | 显示全部楼层
谢谢分享
回复

使用道具 举报

懒得打字嘛,点击右侧快捷回复 【右侧内容,后台自定义】
您需要登录后才可以回帖 登录 | 立即加入

本版积分规则

Archiver|小黑屋| 蓝光电影网 |网站地图

Copyright © 2021 Comsenz Inc. Powered by 蓝光电影网

蓝光电影网

本站内容由用户自主分享和转载自互联网,转载目的在于传递更多信息,并不代表本网赞同其观点和对其真实性负责。

如有侵权、违反国家法律政策行为,请联系我们,我们会第一时间及时清除和处理!

举报反馈邮箱:[email protected]

快速回复 返回顶部 返回列表