找回密码

蓝光电影网

查看: 147|回复: 0

[剧情] 鬼妓回忆录[中文字幕].Masters.Of.Horror.Imprint.2006.GER.Bluray.1080p.x265.10bit-MiniHD 3.83GB

[复制链接]
蓝光币
8
发表于 2022-7-27 02:17:30 | 显示全部楼层 |阅读模式


◎标  题 鬼妓回忆录
◎译  名 Masters Of Horror : Imprint / インプリント ~ぼっけえ、きょうてえ~
◎片  名 Imprint
◎年  代 2006
◎产  地 加拿大 / 日本 / 美国
◎类  别 可骇
◎语  言 英语
◎上映日期 2006-04-07(英国)
◎IMDb评分 6.9/10 (7211人评价)
◎IMDb链接 https://www.imdb.com/title/tt0757061/
◎豆瓣评分 7.3/10 (4320人评价)
◎豆瓣链接 https://movie.douban.com/subject/30430675/
◎片  长 63分钟
◎导  演 三池崇史 Takashi Miike
◎编  剧 米克·加里斯 Mick Garris
       天愿大介 Daisuke Tengan
       岩井志麻子 Shimako Iwai
◎演  员 比利·德拉戈 Billy Drago
       春海四方 Shihô Harumi
       美知枝 Michie
       儿岛雄一 Magy
       江口德子 Noriko Eguchi
       工藤夕贵 Youki Kudoh
       根岸季衣 Toshie Negishi
       山田豆 Mame Yamada
       木下邦家 Houka Kinoshita
       蜷川美穗 Miho Ninagawa
       野村凉乃 Suzuno Nomura
       岩井志麻子 Shimako Iwai
       饭田孝男 Takao Handa
◎简  介
  月夜行舟,幽谧鬼魅,美国作家克里斯托福(Billy Drago 比利?德拉高 饰)随船行驶于漂着浮尸的河中,去那忌讳小岛寻觅他失散的爱人小桃(美知枝 饰)。他曾与小桃约定带她同回美国,然遍寻不见爱人踪影,却从一面庞丑陋的妓女(工藤夕贵 饰)处得知小桃已经灭亡的凶讯。                                       
                                    欣喜若狂的克里斯托福请求妓女报告小桃灭亡的经过和缘由,妓女则将这一切及自己的身世娓娓道来。他不竭指出女人论述中的子虚,一次次反复,逐步逼近究竟真相,也将他和终极可骇进一步拉近……                                       
                                    ◎幕后建造                                       
                                    调集13位顶尖惊慄电影导演联手炮制的短篇集《Masters of Horror》,邀来日本导演《鬼来电》、《Audition》三池祟史介入製作。这一集是由三池崇史 Takashi Miike 导演的短片集《可骇大师》第1季第13集。                                       
                                    《Masters of Horror》绝对是每个惊慄电影迷求之不得...
  1. ##### MediaInfo ######
  2. General
  3. Unique ID                                : 242951306992591233347163039053856601252 (0xB6C6B83F57424AD2CC4FFFA38CCF74A4)
  4. Complete name                            : Masters.Of.Horror.Imprint.2006.GER.Bluray.1080p.x265.10bit-MiniHD.mkv
  5. Format                                   : Matroska
  6. Format version                           : Version 4
  7. File size                                : 3.83 GiB
  8. Duration                                 : 1 h 3 min
  9. Overall bit rate                         : 8 638 kb/s
  10. Encoded date                             : UTC 2021-03-22 01:57:42
  11. Writing application                      : mkvmerge v42.0.0 ('Overtime') 64-bit
  12. Writing library                          : libebml v1.3.10 + libmatroska v1.5.2
  13. Video
  14. ID                                       : 1
  15. Format                                   : HEVC
  16. Format/Info                              : High Efficiency Video Coding
  17. Format profile                           : Main [email protected]@High
  18. Codec ID                                 : V_MPEGH/ISO/HEVC
  19. Duration                                 : 1 h 3 min
  20. Bit rate                                 : 7 989 kb/s
  21. Width                                    : 1 920 pixels
  22. Height                                   : 1 080 pixels
  23. Display aspect ratio                     : 16:9
  24. Frame rate mode                          : Constant
  25. Frame rate                               : 24.000 FPS
  26. Color space                              : YUV
  27. Chroma subsampling                       : 4:2:0
  28. Bit depth                                : 10 bits
  29. Bits/(Pixel*Frame)                       : 0.161
  30. Stream size                              : 3.54 GiB (92%)
  31. Writing library                          : x265 3.4+24-g6ed1c24a2:[Windows][MSVC 1927][64 bit] 10bit
  32. Encoding settings                        : cpuid=538751111039 / frame-threads=4 / numa-pools=24 / wpp / no-pmode / no-pme / no-psnr / no-ssim / log-level=2 / input-csp=1 / input-res=1920x1080 / interlace=0 / total-frames=0 / level-idc=0 / high-tier=1 / uhd-bd=0 / ref=5 / no-allow-non-conformance / no-repeat-headers / annexb / no-aud / no-hrd / info / hash=0 / no-temporal-layers / no-open-gop / min-keyint=24 / keyint=250 / gop-lookahead=0 / bframes=9 / b-adapt=2 / b-pyramid / bframe-bias=0 / rc-lookahead=60 / lookahead-slices=0 / NTM4NzU=uuDQuD2mJt9fsCf / scenecut=40 / hist-scenecut=0 / radl=0 / no-splice / no-intra-refresh / ctu=32 / min-cu-size=8 / no-rect / no-amp / max-tu-size=32 / tu-inter-depth=4 / tu-intra-depth=4 / limit-tu=0 / rdoq-level=2 / dynamic-rd=0.00 / no-ssim-rd / signhide / no-tskip / nr-intra=0 / nr-inter=0 / no-constrained-intra / no-strong-intra-smoothing / max-merge=5 / limit-refs=0 / no-limit-modes / me=3 / subme=5 / merange=57 / temporal-mvp / no-frame-dup / no-hme / weightp / weightb / no-analyze-src-pics / deblock=-1:-1 / no-sao / no-sao-non-deblock / rd=4 / selective-sao=0 / no-early-skip / no-rskip / no-fast-intra / no-tskip-fast / no-cu-lossless / b-intra / no-splitrd-skip / rdpenalty=0 / psy-rd=2.00 / psy-rdoq=5.00 / no-rd-refine / no-lossless / cbqpoffs=0 / crqpoffs=0 / rc=crf / crf=22.0 / qcomp=0.68 / qpstep=4 / stats-write=0 / stats-read=0 / vbv-maxrate=120000 / vbv-bufsize=120000 / vbv-init=0.9 / crf-max=0.0 / crf-min=0.0 / ipratio=1.40 / pbratio=1.30 / aq-mode=2 / aq-strength=1.00 / no-cutree / zone-count=0 / no-strict-cbr / qg-size=32 / no-rc-grain / qpmax=69 / qpmin=0 / no-const-vbv / sar=0 / overscan=0 / videoformat=5 / range=0 / colorprim=1 / transfer=1 / colormatrix=1 / chromaloc=0 / display-window=0 / cll=0,0 / min-luma=0 / max-luma=1023 / log2-max-poc-lsb=8 / vui-timing-info / vui-hrd-info / slices=1 / no-opt-qp-pps / no-opt-ref-list-length-pps / no-multi-pass-opt-rps / scenecut-bias=0.05 / hist-threshold=0.03 / no-opt-cu-delta-qp / no-aq-motion / no-hdr10 / no-hdr10-opt / no-dhdr10-opt / no-idr-recovery-sei / analysis-reuse-level=0 / analysis-save-reuse-level=0 / analysis-load-reuse-level=0 / scale-factor=0 / refine-intra=0 / refine-inter=0 / refine-mv=1 / refine-ctu-distortion=0 / no-limit-sao / ctu-info=0 / no-lowpass-dct / refine-analysis-type=0 / copy-pic=1 / max-ausize-factor=1.0 / no-dynamic-refine / no-single-sei / no-hevc-aq / no-svt / no-field / qp-adaptation-range=1.00 / no-scenecut-aware-qpconformance-window-offsets / right=0 / bottom=0 / NTM4NzU= / decoder-max-rate=0 / no-vbv-live-multi-pass
  33. Default                                  : Yes
  34. Forced                                   : No
  35. Color range                              : Limited
  36. Color primaries                          : BT.709
  37. Transfer characteristics                 : BT.709
  38. Matrix coefficients                      : BT.709
  39. Audio
  40. ID                                       : 2
  41. Format                                   : AC-3
  42. Format/Info                              : Audio Coding 3
  43. Commercial name                          : Dolby Digital
  44. Codec ID                                 : A_AC3
  45. Duration                                 : 1 h 3 min
  46. Bit rate mode                            : Constant
  47. Bit rate                                 : 640 kb/s
  48. Channel(s)                               : 6 channels
  49. Channel layout                           : L R C LFE Ls Rs
  50. Sampling rate                            : 48.0 kHz
  51. Frame rate                               : 31.250 FPS (1536 SPF)
  52. Compression mode                         : Lossy
  53. Stream size                              : 291 MiB (7%)
  54. Language                                 : English
  55. Service kind                             : Complete Main
  56. Default                                  : Yes
  57. Forced                                   : No
  58. Text
  59. ID                                       : 3
  60. Format                                   : PGS
  61. Muxing mode                              : zlib
  62. Codec ID                                 : S_HDMV/PGS
  63. Codec ID/Info                            : Picture based subtitle format used on BDs/HD-DVDs
  64. Duration                                 : 59 min 4 s
  65. Bit rate                                 : 13.9 kb/s
  66. Count of elements                        : 629
  67. Stream size                              : 5.86 MiB (0%)
  68. Language                                 : Chinese
  69. Default                                  : Yes
  70. Forced                                   : No
复制代码

















保举请利用qBittorrent,utorrent,transmission等标准BT软件下载!以获得最快速度。奉求保种!





回复

使用道具 举报

懒得打字嘛,点击右侧快捷回复 【右侧内容,后台自定义】
您需要登录后才可以回帖 登录 | 立即加入

本版积分规则

Archiver|小黑屋| 蓝光电影网 |网站地图

Copyright © 2021 Comsenz Inc. Powered by 蓝光电影网

蓝光电影网

本站内容由用户自主分享和转载自互联网,转载目的在于传递更多信息,并不代表本网赞同其观点和对其真实性负责。

如有侵权、违反国家法律政策行为,请联系我们,我们会第一时间及时清除和处理!

举报反馈邮箱:[email protected]

快速回复 返回顶部 返回列表