找回密码

蓝光电影网

查看: 49|回复: 0

[剧情] 飞驰人生[国语音轨/中英字幕].Pegasus.2019.BluRay.1080p.x265.10bit-MiniHD 4.45GB

[复制链接]
蓝光币
7
发表于 2022-7-27 02:17:36 | 显示全部楼层 |阅读模式


◎标  题 飞奔人生
◎译  名 Pegasus
◎年  代 2019
◎产  地 中国大陆
◎类  别 笑剧
◎语  言 汉语普通话 / 英语
◎上映日期 2019-02-05(中国大陆)
◎IMDb评分 6.2/10 (1612人评价)
◎IMDb链接 https://www.imdb.com/title/tt9597190/
◎豆瓣评分 6.9/10 (818473人评价)
◎豆瓣链接 https://movie.douban.com/subject/30163509/
◎片  长 98分钟
◎导  演 韩寒 Han Han
◎编  剧 韩寒 Han Han
◎演  员 沈腾 Teng Shen
       黄景瑜 Johnny Huang
       尹正 Zheng Yin
       张本煜 Benyu Zhang
       尹昉 Fang Yin
       田雨 Yu Tian
       魏翔 Xiang Wei
       赵文瑄 Winston Chao
       腾格尔 Tengger
       易细姨 Joshua
       李庆誉 Qingyu Li
       高华阳 Zack Gao
       刘帅良 Shuailiang Liu
       李玲玉 Lingyu Li
       何穗 Sui He
       潘晓婷 Xiaoting Pan
       田原 Yuan Tian
       李春嫒 Chun'ai Li
       冯绍峰 Shaofeng Feng
       王睿 Rui Wang
       沈南 Nan Shen
       徐才根 Caigen Xu
       李兵 Bing Li
       范高翔 Gaoxiang Fan
       刘丁菡 Dinghan Liu
       李微 Wei Li
◎标  签 赛车 / 笑剧 / 中国大陆 / 搞笑 / 黑色诙谐 / 2019 / 青春 / 文艺
◎简  介
    已经气吞山河的拉力赛车手张驰(沈腾 饰),五年后果擅自赛车而被禁赛。从天堂跌落谷底,张驰饱尝生活的艰辛。他委曲求全,洗心革面,终究争取到领会禁的判决。在此以后,他重新找到亲如兄弟的领航员孙宇强(尹正 饰),决心配合冲击今年度的巴音布鲁克拉力赛。但是在此之前,张驰必须重考驾照,改装赛车,拉到援助。每一步都布满艰难,他忍受着旁人的挖苦嘲讽,忍受着现实的冰冷残暴,不管若何都不改变进步的方针。当他好不轻易走到了赛场,还将面临禁赛这几年突起的新秀林臻东(黄景瑜 饰)的应战。                                                                      张驰的时代能否就此远去……
  1. ##### MediaInfo ######
  2. General
  3. Unique ID                                : 45468669972901240671236879761419552449 (0x2234F28276DBE78DE030A4218C0046C1)
  4. Complete name                            : Pegasus.2019.BluRay.1080p.x265.10bit-MiniHD.mkv
  5. Format                                   : Matroska
  6. Format version                           : Version 4
  7. File size                                : 4.45 GiB
  8. Duration                                 : 1 h 38 min
  9. Overall bit rate                         : 6 484 kb/s
  10. Movie name                               : 飞奔人生.Pegasus.2019.BluRay.1080p.x265.10bit.MNHD-FRDS
  11. Encoded date                             : UTC 2021-04-06 04:33:14
  12. Writing application                      : mkvmerge v55.0.0 ('Waiting For Space') 64-bit
  13. Writing library                          : libebml v1.4.2 + libmatroska v1.6.4
  14. Video
  15. ID                                       : 1
  16. Format                                   : HEVC
  17. Format/Info                              : High Efficiency Video Coding
  18. Format profile                           : Main [email protected]@Main
  19. Codec ID                                 : V_MPEGH/ISO/HEVC
  20. Duration                                 : 1 h 38 min
  21. Bit rate                                 : 5 714 kb/s
  22. Width                                    : 1 920 pixels
  23. Height                                   : 756 pixels
  24. Display aspect ratio                     : 2.540
  25. Frame rate mode                          : Constant
  26. Frame rate                               : 24.000 FPS
  27. Color space                              : YUV
  28. Chroma subsampling                       : 4:2:0
  29. Bit depth                                : 10 bits
  30. Bits/(Pixel*Frame)                       : 0.164
  31. Stream size                              : 3.92 GiB (88%)
  32. Writing library                          : x265 3.4+13-g729a838d3+38:[Windows][GCC 10.2.0][64 bit] Asuna 10bit+8bit+12bit
  33. Encoding settings                        : rc=crf / crf=19.0000 / qcomp=0.70 / qpstep=4 / stats-write=0 / stats-read=0 / no-lossless / no-cu-lossless / aq-mode=2 / aq-strength=0.80 / cbqpoffs=-2 / crqpoffs=-2 / ipratio=1.40 / pbratio=1.30 / psy-rd=0.00 / psy-rdoq=5.00 / deblock=-1:-1 / ref=5 / limit-refs=2 / limit-modes / bframes=8 / b-adapt=2 / bframe-bias=0 / b-pyramid / b-intra / weightp / weightb / min-keyint=1 / max-keyint=360 / rc-lookahead=60 / gop-lookahead=0 / NTM4NzU=uuDQuD2mJt9fsCf / scenecut=40 / hist-scenecut=0 / radl=0 / max-cu-size=32 / min-cu-size=8 / me=3 / subme=5 / merange=25 / rdoq-level=1 / rd=4 / rdpenalty=1 / dynamic-rd=0.00 / no-rd-refine / ----- / cutree / no-sao / rect / no-amp / no-open-gop / wpp / no-pmode / no-pme / no-psnr / no-ssim / nr-intra=0 / nr-inter=0 / no-constrained-intra / no-strong-intra-smoothing / max-tu-size=16 / tu-inter-depth=2 / tu-intra-depth=2 / limit-tu=0 / qg-size=16 / qpmax=69 / qpmin=0 / ----- / cpuid=538751111039 / frame-threads=3 / numa-pools=8 / log-level=2 / input-csp=1 / input-res=1920x756 / interlace=0 / level-idc=0 / high-tier=1 / uhd-bd=0 / no-allow-non-conformance / no-repeat-headers / no-aud / no-hrd / info / hash=0 / no-temporal-layers / lookahead-slices=0 / no-splice / no-intra-refresh / ssim-rd / signhide / no-tskip / max-merge=5 / temporal-mvp / no-frame-dup / no-hme / no-analyze-src-pics / no-sao-non-deblock / selective-sao=0 / no-early-skip / rskip / no-fast-intra / no-tskip-fast / no-splitrd-skip / zone-count=0 / no-strict-cbr / no-rc-grain / no-const-vbv / sar=1 / overscan=0 / videoformat=5 / range=0 / colorprim=1 / transfer=2 / colormatrix=2 / chromaloc=0 / display-window=0 / cll=0,0 / min-luma=0 / max-luma=1023 / log2-max-poc-lsb=8 / vui-timing-info / vui-hrd-info / slices=1 / no-opt-qp-pps / no-opt-ref-list-length-pps / no-multi-pass-opt-rps / scenecut-bias=0.05 / hist-threshold=0.01 / no-opt-cu-delta-qp / no-aq-motion / no-hdr10 / no-hdr10-opt / no-dhdr10-opt / no-idr-recovery-sei / analysis-reuse-level=0 / analysis-save-reuse-level=0 / analysis-load-reuse-level=0 / scale-factor=0 / refine-intra=0 / refine-inter=0 / refine-mv=1 / refine-ctu-distortion=0 / no-limit-sao / ctu-info=0 / no-lowpass-dct / refine-analysis-type=0 / copy-pic=1 / max-ausize-factor=1.0 / no-dynamic-refine / no-single-sei / no-hevc-aq / no-svt / no-field / qp-adaptation-range=1.00 / no-scenecut-aware-qpconformance-window-offsets / right=0 / bottom=0 / NTM4NzU= / decoder-max-rate=0
  34. Default                                  : Yes
  35. Forced                                   : No
  36. Color range                              : Limited
  37. Color primaries                          : BT.709
  38. Audio
  39. ID                                       : 2
  40. Format                                   : AC-3
  41. Format/Info                              : Audio Coding 3
  42. Commercial name                          : Dolby Digital
  43. Codec ID                                 : A_AC3
  44. Duration                                 : 1 h 38 min
  45. Bit rate mode                            : Constant
  46. Bit rate                                 : 640 kb/s
  47. Channel(s)                               : 6 channels
  48. Channel layout                           : L R C LFE Ls Rs
  49. Sampling rate                            : 48.0 kHz
  50. Frame rate                               : 31.250 FPS (1536 SPF)
  51. Compression mode                         : Lossy
  52. Stream size                              : 450 MiB (10%)
  53. Language                                 : Chinese
  54. Service kind                             : Complete Main
  55. Default                                  : Yes
  56. Forced                                   : No
  57. Text #1
  58. ID                                       : 3
  59. Format                                   : PGS
  60. Muxing mode                              : zlib
  61. Codec ID                                 : S_HDMV/PGS
  62. Codec ID/Info                            : Picture based subtitle format used on BDs/HD-DVDs
  63. Language                                 : Chinese
  64. Default                                  : Yes
  65. Forced                                   : Yes
  66. Text #2
  67. ID                                       : 4
  68. Format                                   : PGS
  69. Muxing mode                              : zlib
  70. Codec ID                                 : S_HDMV/PGS
  71. Codec ID/Info                            : Picture based subtitle format used on BDs/HD-DVDs
  72. Title                                    : English-PGS
  73. Language                                 : English
  74. Default                                  : No
  75. Forced                                   : Yes
  76. Text #3
  77. ID                                       : 5
  78. Format                                   : PGS
  79. Muxing mode                              : zlib
  80. Codec ID                                 : S_HDMV/PGS
  81. Codec ID/Info                            : Picture based subtitle format used on BDs/HD-DVDs
  82. Title                                    : Chinese-PGS
  83. Language                                 : Chinese
  84. Default                                  : No
  85. Forced                                   : No
  86. Menu
  87. 00:00:00.000                             : en:Chapter 01
  88. 00:11:37.666                             : en:Chapter 02
  89. 00:18:07.250                             : en:Chapter 03
  90. 00:28:18.500                             : en:Chapter 04
  91. 00:37:24.500                             : en:Chapter 05
  92. 00:48:11.750                             : en:Chapter 06
  93. 00:58:29.041                             : en:Chapter 07
  94. 01:06:01.750                             : en:Chapter 08
  95. 01:11:01.958                             : en:Chapter 09
  96. 01:18:22.041                             : en:Chapter 10
  97. 01:24:46.333                             : en:Chapter 11
  98. 01:31:00.416                             : en:Chapter 12
复制代码



保举请利用qBittorrent,utorrent,transmission等标准BT软件下载!以获得最快速度。奉求保种!





回复

使用道具 举报

懒得打字嘛,点击右侧快捷回复 【右侧内容,后台自定义】
您需要登录后才可以回帖 登录 | 立即加入

本版积分规则

Archiver|小黑屋| 蓝光电影网 |网站地图

Copyright © 2021 Comsenz Inc. Powered by 蓝光电影网

蓝光电影网

本站内容由用户自主分享和转载自互联网,转载目的在于传递更多信息,并不代表本网赞同其观点和对其真实性负责。

如有侵权、违反国家法律政策行为,请联系我们,我们会第一时间及时清除和处理!

举报反馈邮箱:[email protected]

快速回复 返回顶部 返回列表