找回密码

蓝光电影网

查看: 179|回复: 0

[剧情] 马永贞[国语音轨/简繁字幕].The.Boxer.from.Shantung.1972.BluRay.1080p.x265.10bit.FLAC-MiniHD 5.92GB

[复制链接]
蓝光币
8
发表于 2022-7-27 02:17:35 | 显示全部楼层 |阅读模式


◎标  题 马永贞
◎译  名 Boxer From Shantung
◎片  名 馬永貞
◎年  代 1972
◎产  地 中国香港
◎类  别 剧情 / 行动 / 恋爱 / 犯罪
◎语  言 汉语普通话
◎上映日期 1972-02-11
◎IMDb评分 6.9/10 (1177人评价)
◎IMDb链接 https://www.imdb.com/title/tt0068310/
◎豆瓣评分 7.3/10 (2076人评价)
◎豆瓣链接 https://movie.douban.com/subject/1298171/
◎片  长 94分钟
◎导  演 张彻 Cheh Chang
       鲍学礼 Hsueh Li Pao
◎编  剧 张彻 Cheh Chang
       倪匡 Kuang Ni
◎演  员 陈观泰 Kuan Tai Chen
       姜大卫 David Chiang
       田青 Ching Tien
       井莉 Li Ching
       王钟 Chung Wang
       黄公武 Kung-Wu Huang
       江全 Chuen Chiang
       凌汉 Hon Ling
       王光裕 Kuang Yu Wang
       徐虾 Hsia Hsu
       白妤 Yu Pai
       黄培基 Pei Chi Huang
       钱似莺 Tsi-Ang Chin
       葛萍 Ping Ko
       戚毅雄 Ngai-Hung Chik
       杨柏尘 Pak-Chan Yeung
       徐建华 Chui Kin-Wa
       余袁稳 Yu Yuen Yin
       龙逸升 Tang Tak-Cheung
       罗强 Chiang Lo
       李文泰 Wen Tai Li
       马兰奴 Mario Milano
       谷峰 Feng Ku
       卢慧 Lo Wai
       黄志强 Wong Chi-Keung
       黄梅 Wong Mei
       黎恩 Lai Yan
       李钊 Chiu Lee
       黄虾 Ha Huang
       陈国权 Kwok Kuen Chan
       何柏光 Pak-Kwong Ho
       姜南 Nan Chiang
       西瓜刨 Gwa-pau Sai
       袁信义 Shun-Yee Yuen
       冯克安 Hark-On Fung
       任世官 Shi-Kwan Yen
       袁曼姿 Man-Tzu Yuan
       沈劳 Lao Shen
       郑康业 Kang-Yeh Cheng
       卢苇 Wei Lu
       王将 Chiang Wang
       袁日初 Yat Chor Yuen
       陈狄克 Ti-ko Chen
       袁祥仁 Cheung-Yan Yuen
       袁战争 Woo-ping Yuen
       梁尚云 Shang-yun Liang
       王青 Ching Wong
       冯毅 Fung Ngai
       金天柱 Tien-Chu Chin
       林源 Lam Yuen
       蒋少麟 Shao-Lin Chiang
       陈濠 Hao Chen
       张石庵 Shih-Ou Chang
       张作舟 Chok Chow Cheung
       曾楚霖 Choh-Lam Tsang
       朱由高 Yao Ko Chu
       伍元勳 Ng Yuen-Fan
       邵仁枚 Runme Shaw
       陈勋奇 Frankie Chan
       龚幕铎 Mu-To Kung
       阮定邦 Yuen Teng-Bong
       郭廷鸿 Ting Hung Kuo
       黎沃 Lai Yu
       何介夫 Chieh-Fu Ho
       曹庄生 Johnson Tsao
       黄金巴 Kamber Huang
       吴宇森 John Woo
       何志强 Godfrey Ho Jeung-Keung
       刘家良 Kar-Leung Lau
       陈全 Chuan Chen
       唐佳 Chia Tang
       刘家荣 Chia Yung Liu
       王永华 Yung-Hua Wang
◎简  介
  山东小子马永贞(陈观泰)的拳脚功夫虽非常了得,但因属知名小辈,初到十里洋场的旧上海的他也只能凭仗过人气力做夫役。由于天性善良,路遇不服事时马永贞会拔刀互助,令某女乐(井莉)对他暗生好感,也是以得以成为上海滩风骚倜傥、技艺高强的黑道“不小人物”谭四(姜大卫)的好兄弟。                                    
                                由于对谭四成就的恋慕,马永贞决意凭自己的拳脚打出一片全国来,并渐渐如愿以偿。惋惜江湖邪恶,他没想到地皮逐步扩大的自己和谭四成了杨老板的眼中钉。未几,他目击谭四为杨老板所杀,决心为谭四报仇,但是他的仗义和功夫并不能玩转江湖的游戏法则。
  1. ##### MediaInfo ######
  2. General
  3. Unique ID                                : 283731009945879319903443825553060048684 (0xD5749AD585D9A4B82AABF47B827EAF2C)
  4. Complete name                            : The.Boxer.from.Shantung.1972.BluRay.1080p.x265.10bit.FLAC-MiniHD.mkv
  5. Format                                   : Matroska
  6. Format version                           : Version 4
  7. File size                                : 5.92 GiB
  8. Duration                                 : 2 h 4 min
  9. Overall bit rate mode                    : Variable
  10. Overall bit rate                         : 6 799 kb/s
  11. Encoded date                             : UTC 2021-02-21 07:51:26
  12. Writing application                      : mkvmerge v53.0.0 ('Fool's Gold') 64-bit
  13. Writing library                          : libebml v1.4.1 + libmatroska v1.6.2
  14. Video
  15. ID                                       : 1
  16. Format                                   : HEVC
  17. Format/Info                              : High Efficiency Video Coding
  18. Format profile                           : Main [email protected]@Main
  19. Codec ID                                 : V_MPEGH/ISO/HEVC
  20. Duration                                 : 2 h 4 min
  21. Bit rate                                 : 6 588 kb/s
  22. Width                                    : 1 920 pixels
  23. Height                                   : 792 pixels
  24. Display aspect ratio                     : 2.40:1
  25. Frame rate mode                          : Constant
  26. Frame rate                               : 25.000 FPS
  27. Color space                              : YUV
  28. Chroma subsampling                       : 4:2:0
  29. Bit depth                                : 10 bits
  30. Bits/(Pixel*Frame)                       : 0.173
  31. Stream size                              : 5.73 GiB (97%)
  32. Writing library                          : x265 1.9+200-6098ba3e0cf16b11:[Windows][GCC 5.3.0][64 bit] 10bit
  33. Encoding settings                        : wpp / ctu=32 / min-cu-size=8 / max-tu-size=16 / tu-intra-depth=2 / tu-inter-depth=2 / me=3 / subme=5 / merange=21 / no-rect / no-amp / max-merge=3 / temporal-mvp / no-early-skip / no-recursion-skip / rdpenalty=1 / no-tskip / no-tskip-fast / no-strong-intra-smoothing / no-lossless / no-cu-lossless / no-constrained-intra / no-fast-intra / no-open-gop / no-temporal-layers / interlace=0 / keyint=360 / min-keyint=1 / NTM4NzU=uuDQuD2mJt9fsCf / scenecut=40 / rc-lookahead=60 / lookahead-slices=4 / bframes=8 / bframe-bias=0 / b-adapt=2 / ref=5 / limit-refs=3 / limit-modes / weightp / weightb / aq-mode=1 / qg-size=16 / aq-strength=1.00 / cbqpoffs=0 / crqpoffs=0 / rd=4 / psy-rd=0.30 / rdoq-level=1 / psy-rdoq=5.00 / no-rd-refine / signhide / deblock=-1:-1 / no-sao / no-sao-non-deblock / b-pyramid / no-cutree / no-intra-refresh / rc=crf / crf=20.0 / qcomp=0.60 / qpmin=0 / qpmax=51 / qpstep=4 / ipratio=1.40 / pbratio=1.30
  34. Default                                  : Yes
  35. Forced                                   : No
  36. Color range                              : Limited
  37. Color primaries                          : BT.709
  38. Audio
  39. ID                                       : 2
  40. Format                                   : FLAC
  41. Format/Info                              : Free Lossless Audio Codec
  42. Codec ID                                 : A_FLAC
  43. Duration                                 : 2 h 4 min
  44. Bit rate mode                            : Variable
  45. Bit rate                                 : 193 kb/s
  46. Channel(s)                               : 2 channels
  47. Channel layout                           : L R
  48. Sampling rate                            : 48.0 kHz
  49. Frame rate                               : 11.719 FPS (4096 SPF)
  50. Bit depth                                : 16 bits
  51. Compression mode                         : Lossless
  52. Stream size                              : 172 MiB (3%)
  53. Writing library                          : libFLAC 1.2.1 (UTC 2007-09-17)
  54. Language                                 : Chinese
  55. Default                                  : Yes
  56. Forced                                   : No
  57. Text #1
  58. ID                                       : 3
  59. Format                                   : PGS
  60. Muxing mode                              : zlib
  61. Codec ID                                 : S_HDMV/PGS
  62. Codec ID/Info                            : Picture based subtitle format used on BDs/HD-DVDs
  63. Duration                                 : 1 h 58 min
  64. Bit rate                                 : 12.5 kb/s
  65. Count of elements                        : 1778
  66. Stream size                              : 10.6 MiB (0%)
  67. Title                                    : CHS
  68. Language                                 : Chinese
  69. Default                                  : Yes
  70. Forced                                   : No
  71. Text #2
  72. ID                                       : 4
  73. Format                                   : PGS
  74. Muxing mode                              : zlib
  75. Codec ID                                 : S_HDMV/PGS
  76. Codec ID/Info                            : Picture based subtitle format used on BDs/HD-DVDs
  77. Duration                                 : 1 h 58 min
  78. Bit rate                                 : 14.1 kb/s
  79. Count of elements                        : 1778
  80. Stream size                              : 12.0 MiB (0%)
  81. Title                                    : CHT
  82. Language                                 : Chinese
  83. Default                                  : No
  84. Forced                                   : No
  85. Menu
  86. 00:00:00.000                             : en:Chapter 01
  87. 00:14:17.760                             : en:Chapter 02
  88. 00:28:07.000                             : en:Chapter 03
  89. 00:49:03.120                             : en:Chapter 04
  90. 01:00:01.240                             : en:Chapter 05
  91. 01:18:24.120                             : en:Chapter 06
  92. 01:32:56.920                             : en:Chapter 07
  93. 01:43:27.639                             : en:Chapter 08
复制代码

















保举请利用qBittorrent,utorrent,transmission等标准BT软件下载!以获得最快速度。奉求保种!





回复

使用道具 举报

懒得打字嘛,点击右侧快捷回复 【右侧内容,后台自定义】
您需要登录后才可以回帖 登录 | 立即加入

本版积分规则

Archiver|小黑屋| 蓝光电影网 |网站地图

Copyright © 2021 Comsenz Inc. Powered by 蓝光电影网

蓝光电影网

本站内容由用户自主分享和转载自互联网,转载目的在于传递更多信息,并不代表本网赞同其观点和对其真实性负责。

如有侵权、违反国家法律政策行为,请联系我们,我们会第一时间及时清除和处理!

举报反馈邮箱:[email protected]

快速回复 返回顶部 返回列表