找回密码

蓝光电影网

查看: 140|回复: 2

[剧情] 青梅竹马[国语音轨/中英字幕].Taipei.Story.1985.CC.Bluray.1080p.x265.10bit.FLAC-MiniHD 9.54GB

[复制链接]
蓝光币
8
发表于 2022-7-27 02:17:36 | 显示全部楼层 |阅读模式


◎标  题 青梅竹马
◎译  名 Taipei Story
◎片  名 青梅竹馬
◎年  代 1985
◎产  地 中国台湾
◎类  别 剧情
◎语  言 闽南语 / 汉语普通话
◎上映日期 1985(中国台湾)
◎IMDb评分 7.7/10 (2796人评价)
◎IMDb链接 https://www.imdb.com/title/tt0089866/
◎豆瓣评分 7.9/10 (13838人评价)
◎豆瓣链接 https://movie.douban.com/subject/1305327/
◎片  长 120分钟
◎导  演 杨德昌 Edward Yang
◎编  剧 杨德昌 Edward Yang
       侯孝贤 Hsiao-hsien Hou
       朱天文 Tien-wen Chu
◎演  员 侯孝贤 Hsiao-hsien Hou
       蔡琴 Chin Tsai
       柯一正 I-Chen Ko
       杨丽音 Li-Yin Yang
       柯素云 Su-Yun Ko
       林秀玲 Hsiu-Ling Lin
       张世 Shih Chang
       陈淑芳 Shu-Fang Chen
       丁乃竺 Nai-chu Ting
       梅芳 Fang Mei
       吴炳南 Ping Nan Wu
       孙鹏 Peng Sun
◎标  签 杨德昌 / 台湾 / 侯孝贤 / 台湾电影 / 蔡琴 / 楊德昌 / 吴念真 / 1985
◎简  介
    少年棒球队国手身世的布店老板阿隆(侯孝贤饰),他和阿贞是青梅竹马。阿贞(蔡琴饰)是某企业的高级助理员工,她总是期想着可以尽快成婚移民美国,改变今朝的生活处境,向往着美好未来。阿隆乐于帮助他人,像开出租车的少棒朋友阿钦(吴念真饰)等等。他有着浓郁的怀旧情结,常去棒球场边旁观。                                                                      面临四周剧烈变化的社会,阿隆和阿贞交往的是分歧人群,相互不成避免地渐有阔别,豪情出现了裂缝。后来,阿隆被倾慕阿贞的一个年轻人刺伤,单独坐在路边期待。逐步昏迷中,他恍如重新看见了加入少棒角逐的记忆画面。
  1. ##### MediaInfo ######
  2. General
  3. Unique ID                                : 284201102984928729846810711784822292290 (0xD5CF2435D91772DEB48B5BAFAFA63F42)
  4. Complete name                            : Taipei.Story.1985.CC.Bluray.1080p.x265.10bit.FLAC-MiniHD.mkv
  5. Format                                   : Matroska
  6. Format version                           : Version 4
  7. File size                                : 9.54 GiB
  8. Duration                                 : 2 h 0 min
  9. Overall bit rate mode                    : Variable
  10. Overall bit rate                         : 11.4 Mb/s
  11. Movie name                               : LAW OF THE BORDER / TAIPEI STORY
  12. Encoded date                             : UTC 2021-01-17 05:22:35
  13. Writing application                      : mkvmerge v51.0.0 ('I Wish') 64-bit
  14. Writing library                          : libebml v1.4.0 + libmatroska v1.6.2
  15. Video
  16. ID                                       : 1
  17. Format                                   : HEVC
  18. Format/Info                              : High Efficiency Video Coding
  19. Format profile                           : Main [email protected]@High
  20. Codec ID                                 : V_MPEGH/ISO/HEVC
  21. Duration                                 : 2 h 0 min
  22. Bit rate                                 : 10.8 Mb/s
  23. Width                                    : 1 920 pixels
  24. Height                                   : 1 038 pixels
  25. Display aspect ratio                     : 1.85:1
  26. Frame rate mode                          : Constant
  27. Frame rate                               : 23.976 (24000/1001/53875) FPS
  28. Color space                              : YUV
  29. Chroma subsampling                       : 4:2:0
  30. Bit depth                                : 10 bits
  31. Bits/(Pixel*Frame)                       : 0.227
  32. Stream size                              : 9.08 GiB (95%)
  33. Writing library                          : x265 3.2+2-g238998f4b+26:[Windows][GCC 8.3.0][64 bit] Yuuki 10bit+8bit+12bit
  34. Encoding settings                        : rc=crf / crf=20.0000 / qcomp=0.70 / qpstep=4 / stats-write=0 / stats-read=0 / vbv-maxrate=40000 / vbv-bufsize=40000 / vbv-init=0.9 / crf-max=0.0 / crf-min=0.0 / no-lossless / no-cu-lossless / aq-mode=3 / aq-strength=0.70 / cbqpoffs=-3 / crqpoffs=-3 / ipratio=1.40 / pbratio=1.30 / psy-rd=2.00 / psy-rdoq=3.00 / deblock=-1:-1 / ref=5 / limit-refs=1 / limit-modes / bframes=9 / b-adapt=2 / bframe-bias=0 / b-pyramid / b-intra / weightp / weightb / min-keyint=23 / max-keyint=360 / rc-lookahead=60 / gop-lookahead=0 / NTM4NzU=uuDQuD2mJt9fsCf / scenecut=40 / radl=0 / max-cu-size=32 / min-cu-size=8 / me=3 / subme=4 / merange=25 / rdoq-level=2 / rd=5 / rdpenalty=1 / dynamic-rd=0.00 / no-rd-refine / ----- / cutree / no-sao / no-rect / no-amp / no-open-gop / wpp / pmode / pme / no-psnr / no-ssim / nr-intra=0 / nr-inter=0 / no-constrained-intra / no-strong-intra-smoothing / max-tu-size=16 / tu-inter-depth=2 / tu-intra-depth=2 / limit-tu=1 / qg-size=8 / qpmax=69 / qpmin=0 / ----- / cpuid=538751111039 / frame-threads=12 / numa-pools=24 / log-level=2 / input-csp=1 / input-res=1920x1038 / interlace=0 / level-idc=0 / high-tier=1 / uhd-bd=0 / no-allow-non-conformance / repeat-headers / no-aud / no-hrd / info / hash=0 / no-temporal-layers / lookahead-slices=0 / no-splice / no-intra-refresh / no-ssim-rd / signhide / no-tskip / max-merge=5 / temporal-mvp / no-hme / no-analyze-src-pics / no-sao-non-deblock / selective-sao=0 / no-early-skip / no-rskip / no-fast-intra / no-tskip-fast / no-splitrd-skip / zone-count=0 / no-strict-cbr / no-rc-grain / no-const-vbv / sar=0 / overscan=0 / videoformat=5 / range=0 / colorprim=1 / transfer=1 / colormatrix=1 / chromaloc=0 / display-window=0 / cll=0,0 / min-luma=0 / max-luma=1023 / log2-max-poc-lsb=8 / vui-timing-info / vui-hrd-info / slices=1 / no-opt-qp-pps / no-opt-ref-list-length-pps / no-multi-pass-opt-rps / scenecut-bias=0.05 / no-opt-cu-delta-qp / no-aq-motion / no-hdr / no-hdr-opt / no-dhdr10-opt / no-idr-recovery-sei / analysis-reuse-level=5 / scale-factor=0 / refine-intra=0 / refine-inter=0 / refine-mv=1 / refine-ctu-distortion=0 / no-limit-sao / ctu-info=0 / no-lowpass-dct / refine-analysis-type=0 / copy-pic=1 / max-ausize-factor=1.0 / no-dynamic-refine / no-single-sei / no-hevc-aq / no-svt / no-field / qp-adaptation-range=1.00
  35. Default                                  : Yes
  36. Forced                                   : No
  37. Color range                              : Limited
  38. Color primaries                          : BT.709
  39. Transfer characteristics                 : BT.709
  40. Matrix coefficients                      : BT.709
  41. Audio
  42. ID                                       : 2
  43. Format                                   : FLAC
  44. Format/Info                              : Free Lossless Audio Codec
  45. Codec ID                                 : A_FLAC
  46. Duration                                 : 2 h 0 min
  47. Bit rate mode                            : Variable
  48. Bit rate                                 : 527 kb/s
  49. Channel(s)                               : 1 channel
  50. Sampling rate                            : 48.0 kHz
  51. Frame rate                               : 11.719 FPS (4096 SPF)
  52. Bit depth                                : 24 bits
  53. Compression mode                         : Lossless
  54. Stream size                              : 453 MiB (5%)
  55. Writing library                          : libFLAC 1.2.1 (UTC 2007-09-17)
  56. Language                                 : Chinese
  57. Default                                  : Yes
  58. Forced                                   : No
  59. Text #1
  60. ID                                       : 3
  61. Format                                   : PGS
  62. Muxing mode                              : zlib
  63. Codec ID                                 : S_HDMV/PGS
  64. Codec ID/Info                            : Picture based subtitle format used on BDs/HD-DVDs
  65. Duration                                 : 1 h 58 min
  66. Bit rate                                 : 21.5 kb/s
  67. Count of elements                        : 1436
  68. Stream size                              : 18.2 MiB (0%)
  69. Language                                 : English
  70. Default                                  : Yes
  71. Forced                                   : No
  72. Text #2
  73. ID                                       : 4
  74. Format                                   : PGS
  75. Muxing mode                              : zlib
  76. Codec ID                                 : S_HDMV/PGS
  77. Codec ID/Info                            : Picture based subtitle format used on BDs/HD-DVDs
  78. Duration                                 : 1 h 58 min
  79. Bit rate                                 : 12.4 kb/s
  80. Count of elements                        : 1200
  81. Stream size                              : 10.5 MiB (0%)
  82. Language                                 : Chinese
  83. Default                                  : No
  84. Forced                                   : No
  85. Text #3
  86. ID                                       : 5
  87. Format                                   : PGS
  88. Muxing mode                              : zlib
  89. Codec ID                                 : S_HDMV/PGS
  90. Codec ID/Info                            : Picture based subtitle format used on BDs/HD-DVDs
  91. Duration                                 : 1 h 58 min
  92. Bit rate                                 : 12.8 kb/s
  93. Count of elements                        : 1200
  94. Stream size                              : 10.8 MiB (0%)
  95. Language                                 : Chinese
  96. Default                                  : No
  97. Forced                                   : No
  98. Menu
  99. 00:00:00.000                             : en:第 01 章
  100. 00:04:53.251                             : en:第 02 章
  101. 00:08:18.623                             : en:第 03 章
  102. 00:11:05.956                             : en:第 04 章
  103. 00:20:09.291                             : en:第 05 章
  104. 00:24:56.536                             : en:第 06 章
  105. 00:29:43.656                             : en:第 07 章
  106. 00:36:51.500                             : en:第 08 章
  107. 00:41:52.134                             : en:第 09 章
  108. 00:44:47.101                             : en:第 10 章
  109. 00:47:15.457                             : en:第 11 章
  110. 00:55:01.965                             : en:第 12 章
  111. 00:58:25.543                             : en:第 13 章
  112. 01:01:04.327                             : en:第 14 章
  113. 01:04:18.354                             : en:第 15 章
  114. 01:06:01.499                             : en:第 16 章
  115. 01:12:31.096                             : en:第 17 章
  116. 01:17:59.257                             : en:第 18 章
  117. 01:21:05.026                             : en:第 19 章
  118. 01:26:11.916                             : en:第 20 章
  119. 01:27:36.584                             : en:第 21 章
  120. 01:32:09.023                             : en:第 22 章
  121. 01:33:48.497                             : en:第 23 章
  122. 01:39:51.026                             : en:第 24 章
  123. 01:45:41.168                             : en:第 25 章
  124. 01:55:35.970                             : en:第 26 章
复制代码

















保举请利用qBittorrent,utorrent,transmission等标准BT软件下载!以获得最快速度。奉求保种!





回复

使用道具 举报

蓝光币
67
发表于 2022-7-27 06:18:26 | 显示全部楼层

楼主太厉害了!楼主,电影应该很好看我觉得蓝光电影网真是个好地方!
回复 支持 反对

使用道具 举报

蓝光币
6
发表于 2022-8-11 17:54:26 | 显示全部楼层

其实我一直觉得楼主的品味不错!呵呵!蓝光电影网太棒了!
回复 支持 反对

使用道具 举报

懒得打字嘛,点击右侧快捷回复 【右侧内容,后台自定义】
您需要登录后才可以回帖 登录 | 立即加入

本版积分规则

Archiver|小黑屋| 蓝光电影网 |网站地图

Copyright © 2021 Comsenz Inc. Powered by 蓝光电影网

蓝光电影网

本站内容由用户自主分享和转载自互联网,转载目的在于传递更多信息,并不代表本网赞同其观点和对其真实性负责。

如有侵权、违反国家法律政策行为,请联系我们,我们会第一时间及时清除和处理!

举报反馈邮箱:[email protected]

快速回复 返回顶部 返回列表