找回密码

蓝光电影网

查看: 98|回复: 0

[剧情] 隐形人[简繁英字幕].The.Invisible.Man.2020.Bluray.1080p.x265.10bit.2Audios.DDP.7.1-MiniHD 7.94GB

[复制链接]
蓝光币
7
发表于 2022-7-27 02:17:39 | 显示全部楼层 |阅读模式


◎标  题 隐形人
◎译  名 隐身人 / 隐形客(港)
◎片  名 The Invisible Man
◎年  代 2020
◎产  地 加拿大 / 澳大利亚 / 美国
◎类  别 科幻 / 惊悚 / 可骇
◎语  言 英语
◎上映日期 2020-12-04(中国大陆) / 2020-02-28(美国)
◎IMDb评分 7.1/10 (199624人评价)
◎IMDb链接 https://www.imdb.com/title/tt1051906/
◎豆瓣评分 7.1/10 (193410人评价)
◎豆瓣链接 https://movie.douban.com/subject/2364086/
◎片  长 124分钟
◎导  演 雷·沃纳尔 Leigh Whannell
◎编  剧 雷·沃纳尔 Leigh Whannell
       赫伯特·乔治·威尔斯 H.G. Wells
◎演  员 伊丽莎白·莫斯 Elisabeth Moss
       奥利弗·杰森-科恩 Oliver Jackson-Cohen
       阿尔迪斯·霍吉 Aldis Hodge
       迈克尔·多曼 Michael Dorman
       斯托姆·瑞德 Storm Reid
       本尼迪克·哈迪 Benedict Hardie
       哈丽特·戴尔 Harriet Dyer
       瑞妮·林 Renee Lim
       布莱恩·米根 Brian Meegan
       薇薇安·格里尔 Vivienne Greer
       尼古拉斯·霍普 Nicholas Hope
       克利夫·威廉姆斯 Cleave Williams
       萨姆·史姑娘 Sam Smith
       扎拉·迈克尔斯 Zara Michales
       纳许·埃哲顿 Nash Edgerton
       安东尼·布兰登·黄 Anthony Brandon Wong
       阿玛莉·沃德 Amali Ward
       迈克尔·诺特 Michael Knott
◎标  签 惊悚 / 悬疑 / 可骇 / 科幻 / 犯罪 / 美国 / 2020 / 剧情
◎简  介
    西西莉亚(伊丽莎白·莫斯 Elisabeth Moss 饰)再也想不到,已经将自己迷得颠三倒四的英俊汉子阿德里安(奥利弗·杰森-科恩 Oliver Jackson-Cohen 饰),现在会成为噩梦的始作俑者。在和自己恋爱后没多久,阿德里安便起头对西西莉亚停止精神和精神上的两重控制,终究,忍无可忍的西西莉亚在一天深夜用安宁将阿德里安迷晕,成功的逃出了魔窟。                                                                      以后,西西莉亚震动的收到了阿德里安自杀的消息了,她几近不敢相信,这个魔头真的从自己的生活中彻完全底的消失了。西西莉亚的疑虑并不是空穴来风,在她生活的角角落落中,似乎都有一个无形的影子在窥视着她,诡计触碰她。
  1. ##### MediaInfo ######
  2. General
  3. Unique ID                                : 287309825965497677140316442499190195447 (0xD825DC163D9424FCD50CDE2264E184F7)
  4. Complete name                            : The.Invisible.Man.2020.Bluray.1080p.x265.10bit.2Audios.DDP.7.1-MiniHD.mkv
  5. Format                                   : Matroska
  6. Format version                           : Version 4
  7. File size                                : 7.94 GiB
  8. Duration                                 : 2 h 4 min
  9. Overall bit rate                         : 9 134 kb/s
  10. Movie name                               : The Invisible Man [2020] Blueray 1080p - FRDS
  11. Encoded date                             : UTC 2021-04-09 07:47:11
  12. Writing application                      : mkvmerge v56.0.0 ('Strasbourg / St. Denis') 64-bit
  13. Writing library                          : libebml v1.4.2 + libmatroska v1.6.4
  14. Cover                                    : Yes
  15. Attachments                              : cover.jpg
  16. Video
  17. ID                                       : 1
  18. Format                                   : HEVC
  19. Format/Info                              : High Efficiency Video Coding
  20. Format profile                           : Main [email protected]@High
  21. Codec ID                                 : V_MPEGH/ISO/HEVC
  22. Duration                                 : 2 h 4 min
  23. Bit rate                                 : 6 758 kb/s
  24. Width                                    : 1 920 pixels
  25. Height                                   : 804 pixels
  26. Display aspect ratio                     : 2.40:1
  27. Frame rate mode                          : Constant
  28. Frame rate                               : 23.976 (24000/1001/53875) FPS
  29. Color space                              : YUV
  30. Chroma subsampling                       : 4:2:0
  31. Bit depth                                : 10 bits
  32. Bits/(Pixel*Frame)                       : 0.183
  33. Stream size                              : 5.87 GiB (74%)
  34. Writing library                          : x265 3.4+33-606265ac7:[Windows][MSVC 1928][64 bit] 10bit
  35. Encoding settings                        : cpuid=538751111039 / frame-threads=3 / numa-pools=14 / wpp / pmode / no-pme / no-psnr / no-ssim / log-level=2 / input-csp=1 / input-res=1920x804 / interlace=0 / total-frames=178936 / level-idc=0 / high-tier=1 / uhd-bd=0 / ref=4 / no-allow-non-conformance / no-repeat-headers / annexb / no-aud / no-hrd / info / hash=0 / no-temporal-layers / no-open-gop / min-keyint=1 / keyint=250 / gop-lookahead=0 / bframes=6 / b-adapt=2 / b-pyramid / bframe-bias=0 / rc-lookahead=80 / lookahead-slices=0 / NTM4NzU=uuDQuD2mJt9fsCf / scenecut=40 / hist-scenecut=0 / radl=0 / no-splice / no-intra-refresh / ctu=32 / min-cu-size=8 / no-rect / no-amp / max-tu-size=32 / tu-inter-depth=4 / tu-intra-depth=4 / limit-tu=0 / rdoq-level=2 / dynamic-rd=0.00 / no-ssim-rd / signhide / no-tskip / nr-intra=0 / nr-inter=0 / no-constrained-intra / strong-intra-smoothing / max-merge=5 / limit-refs=0 / no-limit-modes / me=3 / subme=7 / merange=44 / temporal-mvp / no-frame-dup / no-hme / weightp / weightb / no-analyze-src-pics / deblock=-3:-3 / no-sao / no-sao-non-deblock / rd=4 / selective-sao=0 / no-early-skip / no-rskip / no-fast-intra / no-tskip-fast / no-cu-lossless / b-intra / no-splitrd-skip / rdpenalty=0 / psy-rd=1.50 / psy-rdoq=1.00 / no-rd-refine / no-lossless / cbqpoffs=-2 / crqpoffs=-2 / rc=crf / crf=17.0 / qcomp=0.65 / qpstep=4 / stats-write=0 / stats-read=0 / vbv-maxrate=160000 / vbv-bufsize=160000 / vbv-init=0.9 / min-vbv-fullness=50.0 / max-vbv-fullness=80.0 / crf-max=0.0 / crf-min=0.0 / ipratio=1.30 / pbratio=1.20 / aq-mode=2 / aq-strength=0.90 / no-cutree / zone-count=0 / no-strict-cbr / qg-size=8 / no-rc-grain / qpmax=69 / qpmin=0 / no-const-vbv / sar=0 / overscan=0 / videoformat=5 / range=0 / colorprim=1 / transfer=1 / colormatrix=1 / chromaloc=0 / display-window=0 / cll=0,0 / min-luma=0 / max-luma=1023 / log2-max-poc-lsb=8 / vui-timing-info / vui-hrd-info / slices=1 / no-opt-qp-pps / no-opt-ref-list-length-pps / no-multi-pass-opt-rps / scenecut-bias=0.05 / hist-threshold=0.03 / no-opt-cu-delta-qp / no-aq-motion / no-hdr10 / no-hdr10-opt / no-dhdr10-opt / no-idr-recovery-sei / analysis-reuse-level=0 / analysis-save-reuse-level=0 / analysis-load-reuse-level=0 / scale-factor=0 / refine-intra=0 / refine-inter=0 / refine-mv=1 / refine-ctu-distortion=0 / no-limit-sao / ctu-info=0 / no-lowpass-dct / refine-analysis-type=0 / copy-pic=1 / max-ausize-factor=1.0 / no-dynamic-refine / no-single-sei / no-hevc-aq / no-svt / no-field / qp-adaptation-range=1.00 / scenecut-aware-qp=0conformance-window-offsets / right=0 / bottom=0 / NTM4NzU= / decoder-max-rate=0 / no-vbv-live-multi-pass
  36. Default                                  : Yes
  37. Forced                                   : No
  38. Color range                              : Limited
  39. Color primaries                          : BT.709
  40. Transfer characteristics                 : BT.709
  41. Matrix coefficients                      : BT.709
  42. Audio #1
  43. ID                                       : 2
  44. Format                                   : E-AC-3
  45. Format/Info                              : Enhanced AC-3
  46. Commercial name                          : Dolby Digital Plus
  47. Codec ID                                 : A_EAC3
  48. Duration                                 : 2 h 4 min
  49. Bit rate mode                            : Constant
  50. Bit rate                                 : 1 533 kb/s
  51. Channel(s)                               : 8 channels
  52. Channel layout                           : L R C LFE Ls Rs Lb Rb
  53. Sampling rate                            : 48.0 kHz
  54. Frame rate                               : 187.500 FPS (256 SPF)
  55. Compression mode                         : Lossy
  56. Stream size                              : 1.33 GiB (17%)
  57. Language                                 : English
  58. Service kind                             : Complete Main
  59. Default                                  : Yes
  60. Forced                                   : No
  61. Audio #2
  62. ID                                       : 3
  63. ID in the original source medium         : 4353 (0x1101)
  64. Format                                   : E-AC-3
  65. Format/Info                              : Enhanced AC-3
  66. Commercial name                          : Dolby Digital Plus
  67. Format profile                           : Blu-ray Disc
  68. Codec ID                                 : A_EAC3
  69. Duration                                 : 2 h 4 min
  70. Bit rate mode                            : Constant
  71. Bit rate                                 : 768 kb/s
  72. Channel(s)                               : 8 channels
  73. Channel layout                           : L R C LFE Ls Rs Lb Rb
  74. Sampling rate                            : 48.0 kHz
  75. Frame rate                               : 31.250 FPS (1536 SPF)
  76. Compression mode                         : Lossy
  77. Stream size                              : 683 MiB (8%)
  78. Language                                 : Spanish
  79. Service kind                             : Complete Main
  80. Default                                  : No
  81. Forced                                   : No
  82. Original source medium                   : Blu-ray
  83. Text #1
  84. ID                                       : 4
  85. ID in the original source medium         : 4611 (0x1203)
  86. Format                                   : PGS
  87. Muxing mode                              : zlib
  88. Codec ID                                 : S_HDMV/PGS
  89. Codec ID/Info                            : Picture based subtitle format used on BDs/HD-DVDs
  90. Duration                                 : 1 h 52 min
  91. Bit rate                                 : 19.8 kb/s
  92. Count of elements                        : 2243
  93. Stream size                              : 16.0 MiB (0%)
  94. Title                                    : chs
  95. Language                                 : Chinese
  96. Default                                  : No
  97. Forced                                   : No
  98. Original source medium                   : Blu-ray
  99. Text #2
  100. ID                                       : 5
  101. ID in the original source medium         : 4612 (0x1204)
  102. Format                                   : PGS
  103. Muxing mode                              : zlib
  104. Codec ID                                 : S_HDMV/PGS
  105. Codec ID/Info                            : Picture based subtitle format used on BDs/HD-DVDs
  106. Duration                                 : 1 h 52 min
  107. Bit rate                                 : 20.3 kb/s
  108. Count of elements                        : 2243
  109. Stream size                              : 16.4 MiB (0%)
  110. Title                                    : cht
  111. Language                                 : Chinese
  112. Default                                  : No
  113. Forced                                   : No
  114. Original source medium                   : Blu-ray
  115. Text #3
  116. ID                                       : 6
  117. ID in the original source medium         : 4613 (0x1205)
  118. Format                                   : PGS
  119. Muxing mode                              : zlib
  120. Codec ID                                 : S_HDMV/PGS
  121. Codec ID/Info                            : Picture based subtitle format used on BDs/HD-DVDs
  122. Duration                                 : 1 h 52 min
  123. Bit rate                                 : 25.6 kb/s
  124. Count of elements                        : 2243
  125. Stream size                              : 20.6 MiB (0%)
  126. Title                                    : chs&eng
  127. Language                                 : Chinese
  128. Default                                  : Yes
  129. Forced                                   : No
  130. Original source medium                   : Blu-ray
  131. Text #4
  132. ID                                       : 7
  133. ID in the original source medium         : 4614 (0x1206)
  134. Format                                   : PGS
  135. Muxing mode                              : zlib
  136. Codec ID                                 : S_HDMV/PGS
  137. Codec ID/Info                            : Picture based subtitle format used on BDs/HD-DVDs
  138. Duration                                 : 1 h 52 min
  139. Bit rate                                 : 26.1 kb/s
  140. Count of elements                        : 2243
  141. Stream size                              : 21.0 MiB (0%)
  142. Title                                    : cht&eng
  143. Language                                 : Chinese
  144. Default                                  : No
  145. Forced                                   : No
  146. Original source medium                   : Blu-ray
  147. Text #5
  148. ID                                       : 8
  149. ID in the original source medium         : 4608 (0x1200)
  150. Format                                   : PGS
  151. Muxing mode                              : zlib
  152. Codec ID                                 : S_HDMV/PGS
  153. Codec ID/Info                            : Picture based subtitle format used on BDs/HD-DVDs
  154. Duration                                 : 1 h 50 min
  155. Bit rate                                 : 24.9 kb/s
  156. Count of elements                        : 2096
  157. Stream size                              : 19.6 MiB (0%)
  158. Language                                 : English
  159. Default                                  : No
  160. Forced                                   : No
  161. Original source medium                   : Blu-ray
  162. Text #6
  163. ID                                       : 9
  164. ID in the original source medium         : 4615 (0x1207)
  165. Format                                   : PGS
  166. Muxing mode                              : zlib
  167. Codec ID                                 : S_HDMV/PGS
  168. Codec ID/Info                            : Picture based subtitle format used on BDs/HD-DVDs
  169. Duration                                 : 1 h 52 min
  170. Bit rate                                 : 15.3 kb/s
  171. Count of elements                        : 2195
  172. Stream size                              : 12.3 MiB (0%)
  173. Language                                 : English
  174. Default                                  : No
  175. Forced                                   : No
  176. Original source medium                   : Blu-ray
  177. Text #7
  178. ID                                       : 10
  179. ID in the original source medium         : 4609 (0x1201)
  180. Format                                   : PGS
  181. Muxing mode                              : zlib
  182. Codec ID                                 : S_HDMV/PGS
  183. Codec ID/Info                            : Picture based subtitle format used on BDs/HD-DVDs
  184. Duration                                 : 2 h 3 min
  185. Bit rate                                 : 17.0 kb/s
  186. Count of elements                        : 1792
  187. Stream size                              : 15.0 MiB (0%)
  188. Language                                 : Spanish
  189. Default                                  : No
  190. Forced                                   : No
  191. Original source medium                   : Blu-ray
  192. Menu
  193. 00:00:00.000                             : CHAPTER:01
  194. 00:11:05.748                             : CHAPTER:02
  195. 00:16:09.134                             : CHAPTER:03
  196. 00:19:16.321                             : CHAPTER:04
  197. 00:25:27.651                             : CHAPTER:05
  198. 00:35:52.233                             : CHAPTER:06
  199. 00:39:50.179                             : CHAPTER:07
  200. 00:46:35.459                             : CHAPTER:08
  201. 00:52:41.867                             : CHAPTER:09
  202. 01:01:22.011                             : CHAPTER:10
  203. 01:08:59.802                             : CHAPTER:11
  204. 01:14:49.735                             : CHAPTER:12
  205. 01:19:23.925                             : CHAPTER:13
  206. 01:24:46.539                             : CHAPTER:14
  207. 01:30:25.336                             : CHAPTER:15
  208. 01:35:24.927                             : CHAPTER:16
  209. 01:39:33.342                             : CHAPTER:17
  210. 01:43:04.219                             : CHAPTER:18
  211. 01:48:54.694                             : CHAPTER:19
  212. 01:53:38.812                             : CHAPTER:20
复制代码



保举请利用qBittorrent,utorrent,transmission等标准BT软件下载!以获得最快速度。奉求保种!





回复

使用道具 举报

懒得打字嘛,点击右侧快捷回复 【右侧内容,后台自定义】
您需要登录后才可以回帖 登录 | 立即加入

本版积分规则

Archiver|小黑屋| 蓝光电影网 |网站地图

Copyright © 2021 Comsenz Inc. Powered by 蓝光电影网

蓝光电影网

本站内容由用户自主分享和转载自互联网,转载目的在于传递更多信息,并不代表本网赞同其观点和对其真实性负责。

如有侵权、违反国家法律政策行为,请联系我们,我们会第一时间及时清除和处理!

举报反馈邮箱:[email protected]

快速回复 返回顶部 返回列表