找回密码

蓝光电影网

查看: 79|回复: 1

[剧情] 阮玲玉[国语音轨/简繁英字幕].Center.Stage.1991.USA.1080p.BluRay.x265.10bit.FLAC-MiniHD 11.01GB

[复制链接]
蓝光币
7
发表于 2022-7-27 02:17:40 | 显示全部楼层 |阅读模式


◎标  题 阮玲玉
◎译  名 Center Stage / Actress / Yuen Ling Yuk / The New China Woman
◎年  代 1991
◎产  地 中国香港
◎类  别 剧情 / 恋爱 / 列传
◎语  言 粤语 / 汉语普通话 / 上海话
◎上映日期 1991-11-29(中国台湾) / 1992-02-20(中国香港)
◎IMDb评分 7.4/10 (2198人评价)
◎IMDb链接 https://www.imdb.com/title/tt0102816/
◎豆瓣评分 8.6/10 (98112人评价)
◎豆瓣链接 https://movie.douban.com/subject/1293414/
◎片  长 121分钟
◎导  演 关锦鹏 Stanley Kwan
◎编  剧 焦雄屏 Peggy Chiao
       邱刚健 Kang Chien Chiu
◎演  员 张曼玉 Maggie Cheung
       梁家辉 Tony Leung
       秦汉 Han Chin
       刘嘉玲 Carina Lau
       吴启华 Lawrence Ng
       叶童 Cecilia Yip
       李子雄 Waise Lee
       张冲 Paul Chang Chung
       叶晨 San Yip
       萧湘 Hsiao Hsiang
       肖荣生 Rongsheng Xiao
       黄达亮 Daliang Huang
       孙栋光 Dongguang Sun
       阮玲玉 Lingyu Ruan
       黎莉莉 Li-li Li
       关锦鹏 Stanley Kwan
       孙瑜 Yu Sun
       周杰 Jie Zhou
       沈晔 Ye Shen
       姚茂宗 Maozong Yao
       符冲 Chong Fu
       成龙 Jackie Chan
       徐小明 Siu Ming Tsui
       何冠昌 Leonard Ho
       黄松鑫 Benny Wong
       陈焕昌 Johnny Chen
       潘恒生 Hang-Sang Poon
       姜全德 Chuen Tak Keung
       朴若木 Lai Pan
       张世宏 Silver Cheung
       刘世云 Sai-Wan Lau
       林龙兴 Longxing Lin
       朴若木 Lai Pan
       周惠坤 Thomas Chow
       詹新 Xin Zhan
       秦怡 Yi Qin
◎简  介
  十六岁收行的阮玲玉(张曼玉 饰)1929年进入联华影片公司后,出演了很多严厉影片。与此同时,阮玲玉厌倦了幼稚的赌鬼男友张达民(吴启华 饰),倾慕于成熟的已婚巨贾唐季珊(秦汉 饰)。张达民起诉阮唐通奸,记者的围堵对阮玲玉形成了庞大的精神压力。在最光辉光辉的二十五岁,阮玲玉自杀身亡……
  1. ##### MediaInfo ######
  2. General
  3. Unique ID                                : 245248575154113967284060692380137021060 (0xB881285000F93C2CCFF91BCCF0F3DE84)
  4. Complete name                            : Center.Stage.1991.USA.1080p.BluRay.x265.10bit.FLAC-MiniHD.mkv
  5. Format                                   : Matroska
  6. Format version                           : Version 4
  7. File size                                : 11.0 GiB
  8. Duration                                 : 2 h 34 min
  9. Overall bit rate mode                    : Variable
  10. Overall bit rate                         : 10.2 Mb/s
  11. Encoded date                             : UTC 2021-06-24 13:19:19
  12. Writing application                      : mkvmerge v45.0.0 ('Heaven in Pennies') 64-bit
  13. Writing library                          : libebml v1.3.10 + libmatroska v1.5.2
  14. Cover                                    : Yes
  15. Attachments                              : cover
  16. Video
  17. ID                                       : 1
  18. Format                                   : HEVC
  19. Format/Info                              : High Efficiency Video Coding
  20. Format profile                           : Main [email protected]@High
  21. Codec ID                                 : V_MPEGH/ISO/HEVC
  22. Duration                                 : 2 h 34 min
  23. Bit rate                                 : 9 678 kb/s
  24. Width                                    : 1 920 pixels
  25. Height                                   : 1 036 pixels
  26. Display aspect ratio                     : 1.85:1
  27. Frame rate mode                          : Constant
  28. Frame rate                               : 24.000 FPS
  29. Color space                              : YUV
  30. Chroma subsampling                       : 4:2:0
  31. Bit depth                                : 10 bits
  32. Bits/(Pixel*Frame)                       : 0.203
  33. Stream size                              : 10.4 GiB (95%)
  34. Writing library                          : x265 0.0:[Linux][GCC 7.5.0][64 bit] 10bit
  35. Encoding settings                        : cpuid=538751111039 / frame-threads=5 / wpp / pmode / no-pme / no-psnr / no-ssim / log-level=2 / input-csp=1 / input-res=1920x1036 / interlace=0 / total-frames=222170 / level-idc=0 / high-tier=1 / uhd-bd=0 / ref=6 / no-allow-non-conformance / no-repeat-headers / annexb / no-aud / no-hrd / info / hash=0 / no-temporal-layers / no-open-gop / min-keyint=24 / keyint=250 / gop-lookahead=0 / bframes=8 / b-adapt=2 / b-pyramid / bframe-bias=0 / rc-lookahead=80 / lookahead-slices=0 / NTM4NzU=uuDQuD2mJt9fsCf / scenecut=40 / hist-scenecut=0 / radl=0 / no-splice / no-intra-refresh / ctu=32 / min-cu-size=8 / no-rect / no-amp / max-tu-size=32 / tu-inter-depth=4 / tu-intra-depth=4 / limit-tu=0 / rdoq-level=2 / dynamic-rd=0.00 / no-ssim-rd / signhide / no-tskip / nr-intra=0 / nr-inter=0 / no-constrained-intra / strong-intra-smoothing / max-merge=5 / limit-refs=0 / no-limit-modes / me=3 / subme=7 / merange=57 / temporal-mvp / no-frame-dup / no-hme / weightp / weightb / no-analyze-src-pics / deblock=-3:-3 / no-sao / no-sao-non-deblock / rd=4 / selective-sao=0 / no-early-skip / no-rskip / no-fast-intra / no-tskip-fast / no-cu-lossless / b-intra / no-splitrd-skip / rdpenalty=0 / psy-rd=1.00 / psy-rdoq=1.00 / no-rd-refine / no-lossless / cbqpoffs=0 / crqpoffs=0 / rc=crf / crf=20.5 / qcomp=0.60 / qpstep=4 / stats-write=0 / stats-read=0 / vbv-maxrate=160000 / vbv-bufsize=160000 / vbv-init=0.9 / crf-max=0.0 / crf-min=0.0 / ipratio=1.30 / pbratio=1.20 / aq-mode=2 / aq-strength=1.00 / cutree / zone-count=0 / no-strict-cbr / qg-size=32 / no-rc-grain / qpmax=69 / qpmin=0 / no-const-vbv / sar=0 / overscan=0 / videoformat=5 / range=0 / colorprim=1 / transfer=1 / colormatrix=1 / chromaloc=0 / display-window=0 / cll=0,0 / min-luma=0 / max-luma=1023 / log2-max-poc-lsb=8 / vui-timing-info / vui-hrd-info / slices=1 / no-opt-qp-pps / no-opt-ref-list-length-pps / no-multi-pass-opt-rps / scenecut-bias=0.05 / hist-threshold=0.01 / no-opt-cu-delta-qp / no-aq-motion / no-hdr10 / no-hdr10-opt / no-dhdr10-opt / no-idr-recovery-sei / analysis-reuse-level=0 / analysis-save-reuse-level=0 / analysis-load-reuse-level=0 / scale-factor=0 / refine-intra=0 / refine-inter=0 / refine-mv=1 / refine-ctu-distortion=0 / no-limit-sao / ctu-info=0 / no-lowpass-dct / refine-analysis-type=0 / copy-pic=1 / max-ausize-factor=1.0 / no-dynamic-refine / no-single-sei / no-hevc-aq / no-svt / no-field / qp-adaptation-range=1.00 / no-scenecut-aware-qpconformance-window-offsets / right=0 / bottom=0 / NTM4NzU= / decoder-max-rate=0
  36. Default                                  : Yes
  37. Forced                                   : No
  38. Color range                              : Limited
  39. Color primaries                          : BT.709
  40. Transfer characteristics                 : BT.709
  41. Matrix coefficients                      : BT.709
  42. Audio
  43. ID                                       : 2
  44. Format                                   : FLAC
  45. Format/Info                              : Free Lossless Audio Codec
  46. Codec ID                                 : A_FLAC
  47. Duration                                 : 2 h 34 min
  48. Bit rate mode                            : Variable
  49. Bit rate                                 : 458 kb/s
  50. Channel(s)                               : 2 channels
  51. Channel layout                           : L R
  52. Sampling rate                            : 48.0 kHz
  53. Frame rate                               : 10.417 FPS (4608 SPF)
  54. Bit depth                                : 24 bits
  55. Compression mode                         : Lossless
  56. Stream size                              : 505 MiB (4%)
  57. Writing library                          : Lavf58.45.100
  58. Language                                 : Chinese
  59. Default                                  : Yes
  60. Forced                                   : No
  61. Text #1
  62. ID                                       : 3
  63. Format                                   : PGS
  64. Muxing mode                              : zlib
  65. Codec ID                                 : S_HDMV/PGS
  66. Codec ID/Info                            : Picture based subtitle format used on BDs/HD-DVDs
  67. Duration                                 : 2 h 30 min
  68. Bit rate                                 : 27.0 kb/s
  69. Count of elements                        : 2564
  70. Stream size                              : 29.1 MiB (0%)
  71. Language                                 : English
  72. Default                                  : No
  73. Forced                                   : No
  74. Text #2
  75. ID                                       : 4
  76. Format                                   : PGS
  77. Muxing mode                              : zlib
  78. Codec ID                                 : S_HDMV/PGS
  79. Codec ID/Info                            : Picture based subtitle format used on BDs/HD-DVDs
  80. Duration                                 : 2 h 33 min
  81. Bit rate                                 : 21.6 kb/s
  82. Count of elements                        : 3061
  83. Stream size                              : 23.8 MiB (0%)
  84. Title                                    : Simplified Chinese
  85. Language                                 : Chinese
  86. Default                                  : Yes
  87. Forced                                   : No
  88. Text #3
  89. ID                                       : 5
  90. Format                                   : PGS
  91. Muxing mode                              : zlib
  92. Codec ID                                 : S_HDMV/PGS
  93. Codec ID/Info                            : Picture based subtitle format used on BDs/HD-DVDs
  94. Duration                                 : 2 h 33 min
  95. Bit rate                                 : 22.4 kb/s
  96. Count of elements                        : 3061
  97. Stream size                              : 24.6 MiB (0%)
  98. Title                                    : Traditional Chinese
  99. Language                                 : Chinese
  100. Default                                  : No
  101. Forced                                   : No
  102. Text #4
  103. ID                                       : 6
  104. Format                                   : PGS
  105. Muxing mode                              : zlib
  106. Codec ID                                 : S_HDMV/PGS
  107. Codec ID/Info                            : Picture based subtitle format used on BDs/HD-DVDs
  108. Duration                                 : 2 h 33 min
  109. Bit rate                                 : 31.5 kb/s
  110. Count of elements                        : 3061
  111. Stream size                              : 34.7 MiB (0%)
  112. Title                                    : Simplified Chinese & English
  113. Language                                 : Chinese
  114. Default                                  : No
  115. Forced                                   : No
  116. Text #5
  117. ID                                       : 7
  118. Format                                   : PGS
  119. Muxing mode                              : zlib
  120. Codec ID                                 : S_HDMV/PGS
  121. Codec ID/Info                            : Picture based subtitle format used on BDs/HD-DVDs
  122. Duration                                 : 2 h 33 min
  123. Bit rate                                 : 32.3 kb/s
  124. Count of elements                        : 3061
  125. Stream size                              : 35.6 MiB (0%)
  126. Title                                    : Traditional Chinese & English
  127. Language                                 : Chinese
  128. Default                                  : No
  129. Forced                                   : No
  130. Menu
  131. 00:00:00.000                             : 00:00:00.000
  132. 00:12:19.708                             : 00:12:19.708
  133. 00:24:01.166                             : 00:24:01.166
  134. 00:33:18.583                             : 00:33:18.583
  135. 00:48:30.250                             : 00:48:30.250
  136. 01:02:34.583                             : 01:02:34.583
  137. 01:12:55.625                             : 01:12:55.625
  138. 01:25:09.291                             : 01:25:09.291
  139. 01:36:20.833                             : 01:36:20.833
  140. 01:49:11.750                             : 01:49:11.750
  141. 02:00:18.166                             : 02:00:18.166
  142. 02:15:32.625                             : 02:15:32.625
  143. 02:34:08.000                             : 02:34:08.000
复制代码



保举请利用qBittorrent,utorrent,transmission等标准BT软件下载!以获得最快速度。奉求保种!





回复

使用道具 举报

蓝光币
26
发表于 2022-7-28 09:09:23 | 显示全部楼层

感谢楼主的无私分享!要想蓝光电影网好 就靠你我他
回复 支持 反对

使用道具 举报

懒得打字嘛,点击右侧快捷回复 【右侧内容,后台自定义】
您需要登录后才可以回帖 登录 | 立即加入

本版积分规则

Archiver|小黑屋| 蓝光电影网 |网站地图

Copyright © 2021 Comsenz Inc. Powered by 蓝光电影网

蓝光电影网

本站内容由用户自主分享和转载自互联网,转载目的在于传递更多信息,并不代表本网赞同其观点和对其真实性负责。

如有侵权、违反国家法律政策行为,请联系我们,我们会第一时间及时清除和处理!

举报反馈邮箱:[email protected]

快速回复 返回顶部 返回列表