找回密码

蓝光电影网

查看: 147|回复: 0

[剧情] 领袖水准[中英字幕].Boss.Level.2020.BluRay.1080p.x265.10bit-MiniHD 6.99GB

[复制链接]
蓝光币
8
发表于 2022-7-27 02:17:39 | 显示全部楼层 |阅读模式


◎标  题 魁首水准
◎译  名 回路追杀令(台) / 循环:终级之战 / 终极关卡
◎片  名 Boss Level
◎年  代 2020
◎产  地 美国
◎类  别 行动 / 科幻 / 惊悚
◎语  言 英语
◎上映日期 2020-02-11(美国点映) / 2021-03-05(美国)
◎IMDb评分 6.8/10 (55665人评价)
◎IMDb链接 https://www.imdb.com/title/tt7638348/
◎豆瓣评分 7.0/10 (15689人评价)
◎豆瓣链接 https://movie.douban.com/subject/27200012/
◎片  长 100分钟
◎导  演 乔·卡纳汉 Joe Carnahan
◎编  剧 克里斯·博雷 Chris Borey
       埃迪·博雷 Eddie Borey
       乔·卡纳汉 Joe Carnahan
◎演  员 梅尔·吉布森 Mel Gibson
       安娜贝拉·沃丽丝 Annabelle Wallis
       杨紫琼 Michelle Yeoh
       弗兰克·格里罗 Frank Grillo
       娜奥米·沃茨 Naomi Watts
       郑肯 Ken Jeong
       威尔·萨索 Will Sasso
       赛琳娜·露 Selina Lo
       马蒂尔德·奥利维耶 Mathilde Ollivier
       泰勒·乔恩·奥尔森 Tyler Jon Olson
       斯温·特梅尔 Swen Temmel
       希·麦金尼 Sheaun McKinney
       埃里克·艾特巴里 Eric Etebari
       奎顿·杰克逊 Quinton 'Rampage' Jackson
       约翰·塞纳迭姆博 John Cenatiempo
       卡洛斯·阿维尔斯 Carlos Aviles
       罗布·格隆科夫斯基 Rob Gronkowski
       巴斯特·雷维斯 Buster Reeves
       迈克尔·图尔克 Michael Tourek
       艾伦·比尔纳 Aaron Beelner
       乔·奈泽维奇 Joe Knezevich
       詹姆斯·威廉·巴拉德 James William Ballard
       亚当·G·西蒙 Adam G. Simon
        Rashad Evans
       本杰明·韦弗 Benjamin Weaver
       罗伯特·廷斯利 Robert Tinsley
       梅多·威廉姆斯 Meadow Williams
◎标  签 科幻 / 行动 / 美国 / 笑剧 / 美国电影 / 2020 / 梅尔吉布森 / 电影
◎简  介
  梅尔·吉布森、弗兰克·格里罗商谈加盟行动惊悚片《魁首水准》(Boss Level),乔·卡纳汉(《人狼大战》《天龙特攻队》)执导并编写剧本。格里罗将饰演一位退役特种军队老兵,被困在永无尽头的灭亡循环当中。                                    
                                Emmett/Furla/Oasis投资,洛伦佐·迪·博纳文图拉(《变形金刚》《生死狙击》)、Mark Vahradian(《赤焰疆场》)、兰道尔·艾米特(《第一滴血》《缓兵之计》)、 George Furla(《双龙脱手》《孤独的幸存者》)结合制片。
  1. ##### MediaInfo ######
  2. General
  3. Unique ID                                : 265868634285763134801753127981370708620 (0xC8046FB8335E7203F1115B4192A6128C)
  4. Complete name                            : Boss.Level.2020.BluRay.1080p.x265.10bit-MiniHD.mkv
  5. Format                                   : Matroska
  6. Format version                           : Version 4
  7. File size                                : 6.99 GiB
  8. Duration                                 : 1 h 40 min
  9. Overall bit rate                         : 9 904 kb/s
  10. Encoded date                             : UTC 2021-03-13 13:46:56
  11. Writing application                      : mkvmerge v44.0.0 ('Domino') 64-bit
  12. Writing library                          : libebml v1.3.10 + libmatroska v1.5.2
  13. Video
  14. ID                                       : 1
  15. Format                                   : HEVC
  16. Format/Info                              : High Efficiency Video Coding
  17. Format profile                           : Main [email protected]@High
  18. Codec ID                                 : V_MPEGH/ISO/HEVC
  19. Duration                                 : 1 h 40 min
  20. Bit rate                                 : 9 262 kb/s
  21. Width                                    : 1 920 pixels
  22. Height                                   : 808 pixels
  23. Display aspect ratio                     : 2.40:1
  24. Frame rate mode                          : Constant
  25. Frame rate                               : 23.976 (24000/1001/53875) FPS
  26. Color space                              : YUV
  27. Chroma subsampling                       : 4:2:0
  28. Bit depth                                : 10 bits
  29. Bits/(Pixel*Frame)                       : 0.249
  30. Stream size                              : 6.53 GiB (94%)
  31. Writing library                          : x265 3.4+33-606265ac7:[Windows][MSVC 1928][64 bit] 10bit
  32. Encoding settings                        : cpuid=538751111039 / frame-threads=3 / numa-pools=12 / wpp / pmode / no-pme / no-psnr / no-ssim / log-level=2 / input-csp=1 / input-res=1920x808 / interlace=0 / total-frames=145281 / level-idc=0 / high-tier=1 / uhd-bd=0 / ref=4 / no-allow-non-conformance / no-repeat-headers / annexb / no-aud / no-hrd / info / hash=0 / no-temporal-layers / no-open-gop / min-keyint=1 / keyint=250 / gop-lookahead=0 / bframes=6 / b-adapt=2 / b-pyramid / bframe-bias=0 / rc-lookahead=80 / lookahead-slices=0 / NTM4NzU=uuDQuD2mJt9fsCf / scenecut=40 / hist-scenecut=0 / radl=0 / no-splice / no-intra-refresh / ctu=32 / min-cu-size=8 / no-rect / no-amp / max-tu-size=32 / tu-inter-depth=4 / tu-intra-depth=4 / limit-tu=0 / rdoq-level=2 / dynamic-rd=0.00 / no-ssim-rd / signhide / no-tskip / nr-intra=0 / nr-inter=0 / no-constrained-intra / strong-intra-smoothing / max-merge=5 / limit-refs=0 / no-limit-modes / me=3 / subme=7 / merange=44 / temporal-mvp / no-frame-dup / no-hme / weightp / weightb / no-analyze-src-pics / deblock=-3:-3 / no-sao / no-sao-non-deblock / rd=4 / selective-sao=0 / no-early-skip / no-rskip / no-fast-intra / no-tskip-fast / no-cu-lossless / b-intra / no-splitrd-skip / rdpenalty=0 / psy-rd=1.50 / psy-rdoq=1.00 / no-rd-refine / no-lossless / cbqpoffs=-2 / crqpoffs=-2 / rc=crf / crf=20.0 / qcomp=0.65 / qpstep=4 / stats-write=0 / stats-read=0 / vbv-maxrate=160000 / vbv-bufsize=160000 / vbv-init=0.9 / min-vbv-fullness=50.0 / max-vbv-fullness=80.0 / crf-max=0.0 / crf-min=0.0 / ipratio=1.30 / pbratio=1.20 / aq-mode=2 / aq-strength=0.90 / no-cutree / zone-count=0 / no-strict-cbr / qg-size=8 / no-rc-grain / qpmax=69 / qpmin=0 / no-const-vbv / sar=0 / overscan=0 / videoformat=5 / range=0 / colorprim=1 / transfer=1 / colormatrix=1 / chromaloc=0 / display-window=0 / cll=0,0 / min-luma=0 / max-luma=1023 / log2-max-poc-lsb=8 / vui-timing-info / vui-hrd-info / slices=1 / no-opt-qp-pps / no-opt-ref-list-length-pps / no-multi-pass-opt-rps / scenecut-bias=0.05 / hist-threshold=0.03 / no-opt-cu-delta-qp / no-aq-motion / no-hdr10 / no-hdr10-opt / no-dhdr10-opt / no-idr-recovery-sei / analysis-reuse-level=0 / analysis-save-reuse-level=0 / analysis-load-reuse-level=0 / scale-factor=0 / refine-intra=0 / refine-inter=0 / refine-mv=1 / refine-ctu-distortion=0 / no-limit-sao / ctu-info=0 / no-lowpass-dct / refine-analysis-type=0 / copy-pic=1 / max-ausize-factor=1.0 / no-dynamic-refine / no-single-sei / no-hevc-aq / no-svt / no-field / qp-adaptation-range=1.00 / scenecut-aware-qp=0conformance-window-offsets / right=0 / bottom=0 / NTM4NzU= / decoder-max-rate=0 / no-vbv-live-multi-pass
  33. Default                                  : Yes
  34. Forced                                   : No
  35. Color range                              : Limited
  36. Color primaries                          : BT.709
  37. Transfer characteristics                 : BT.709
  38. Matrix coefficients                      : BT.709
  39. Audio
  40. ID                                       : 2
  41. Format                                   : AC-3
  42. Format/Info                              : Audio Coding 3
  43. Commercial name                          : Dolby Digital
  44. Codec ID                                 : A_AC3
  45. Duration                                 : 1 h 40 min
  46. Bit rate mode                            : Constant
  47. Bit rate                                 : 640 kb/s
  48. Channel(s)                               : 6 channels
  49. Channel layout                           : L R C LFE Ls Rs
  50. Sampling rate                            : 48.0 kHz
  51. Frame rate                               : 31.250 FPS (1536 SPF)
  52. Compression mode                         : Lossy
  53. Stream size                              : 462 MiB (6%)
  54. Language                                 : English
  55. Service kind                             : Complete Main
  56. Default                                  : Yes
  57. Forced                                   : No
  58. Text #1
  59. ID                                       : 3
  60. Format                                   : ASS
  61. Codec ID                                 : S_TEXT/ASS
  62. Codec ID/Info                            : Advanced Sub Station Alpha
  63. Duration                                 : 1 h 30 min
  64. Bit rate                                 : 107 b/s
  65. Count of elements                        : 1211
  66. Compression mode                         : Lossless
  67. Stream size                              : 71.0 KiB (0%)
  68. Language                                 : English
  69. Default                                  : No
  70. Forced                                   : No
  71. Text #2
  72. ID                                       : 4
  73. Format                                   : ASS
  74. Codec ID                                 : S_TEXT/ASS
  75. Codec ID/Info                            : Advanced Sub Station Alpha
  76. Duration                                 : 1 h 31 min
  77. Bit rate                                 : 97 b/s
  78. Count of elements                        : 1188
  79. Compression mode                         : Lossless
  80. Stream size                              : 65.0 KiB (0%)
  81. Language                                 : Chinese
  82. Default                                  : Yes
  83. Forced                                   : No
复制代码

















保举请利用qBittorrent,utorrent,transmission等标准BT软件下载!以获得最快速度。奉求保种!





回复

使用道具 举报

懒得打字嘛,点击右侧快捷回复 【右侧内容,后台自定义】
您需要登录后才可以回帖 登录 | 立即加入

本版积分规则

Archiver|小黑屋| 蓝光电影网 |网站地图

Copyright © 2021 Comsenz Inc. Powered by 蓝光电影网

蓝光电影网

本站内容由用户自主分享和转载自互联网,转载目的在于传递更多信息,并不代表本网赞同其观点和对其真实性负责。

如有侵权、违反国家法律政策行为,请联系我们,我们会第一时间及时清除和处理!

举报反馈邮箱:[email protected]

快速回复 返回顶部 返回列表