找回密码

蓝光电影网

查看: 69|回复: 0

[剧情] 锅盖头3:绝地反击[中英字幕].Jarhead.3.The.Siege.2016.BluRay.1080p.x265.10bit-MiniHD 3.27GB

[复制链接]
蓝光币
7
发表于 2022-7-27 02:17:41 | 显示全部楼层 |阅读模式


◎标  题 锅盖头3:绝地还击
◎译  名 平头日志3:火网围城
◎片  名 Jarhead 3: The Siege
◎年  代 2016
◎产  地 美国
◎类  别 行动 / 战争 / 冒险
◎语  言 英语
◎上映日期 2016(美国)
◎IMDb评分 5.1/10 (3559人评价)
◎IMDb链接 https://www.imdb.com/title/tt4616014/
◎豆瓣评分 5.9/10 (2474人评价)
◎豆瓣链接 https://movie.douban.com/subject/26675442/
◎导  演 威廉·考夫曼 William Kaufman
◎编  剧 查德·洛 Chad Law
◎演  员 斯科特·阿金斯 Scott Adkins
       查理·韦伯 Charlie Weber
       艾瑞克·瓦德兹 Erik Valdez
       丹特·巴斯克 Dante Basco
       丹尼斯·海斯伯特 Dennis Haysbert
       萨沙·杰克逊 Sasha Jackson
       斯蒂芬·霍根 Stephen Hogan
       罗梅罗·米勒 Romeo Miller
       拉依娜·卡拉亚涅娃 Raina Karayaneva
◎简  介
  一股中东可骇份子包围了美国大使馆地点地,驻守在大使馆的兵士们必须竭尽尽力庇护使馆。
  1. ##### MediaInfo ######
  2. General
  3. Unique ID                                : 35241068878401028120809061029259628456 (0x1A832ED7F12333D0C3127982E401CFA8)
  4. Complete name                            : Jarhead.3.The.Siege.2016.BluRay.1080p.x265.10bit-MiniHD.mkv
  5. Format                                   : Matroska
  6. Format version                           : Version 4
  7. File size                                : 3.27 GiB
  8. Duration                                 : 1 h 28 min
  9. Overall bit rate                         : 5 267 kb/s
  10. Movie name                               : RARBG.COM - Jarhead.3.The.Siege.2016.1080p.BluRay.REMUX.AVC.DTS-HD.MA.5.1-RARBG
  11. Encoded date                             : UTC 2021-03-17 01:33:44
  12. Writing application                      : mkvmerge v55.0.0 ('Waiting For Space') 64-bit
  13. Writing library                          : libebml v1.4.2 + libmatroska v1.6.4
  14. Video
  15. ID                                       : 1
  16. Format                                   : HEVC
  17. Format/Info                              : High Efficiency Video Coding
  18. Format profile                           : Main [email protected]@Main
  19. Codec ID                                 : V_MPEGH/ISO/HEVC
  20. Duration                                 : 1 h 28 min
  21. Bit rate                                 : 4 603 kb/s
  22. Width                                    : 1 920 pixels
  23. Height                                   : 816 pixels
  24. Display aspect ratio                     : 2.35:1
  25. Frame rate mode                          : Constant
  26. Frame rate                               : 23.976 (24000/1001/53875) FPS
  27. Color space                              : YUV
  28. Chroma subsampling                       : 4:2:0
  29. Bit depth                                : 10 bits
  30. Bits/(Pixel*Frame)                       : 0.123
  31. Stream size                              : 2.86 GiB (87%)
  32. Writing library                          : x265 3.4+13-g729a838d3+38:[Windows][GCC 10.2.0][64 bit] Asuna 10bit+8bit+12bit
  33. Encoding settings                        : rc=crf / crf=19.0000 / qcomp=0.70 / qpstep=4 / stats-write=0 / stats-read=0 / no-lossless / no-cu-lossless / aq-mode=2 / aq-strength=0.80 / cbqpoffs=-2 / crqpoffs=-2 / ipratio=1.40 / pbratio=1.30 / psy-rd=0.00 / psy-rdoq=5.00 / deblock=-1:-1 / ref=5 / limit-refs=2 / limit-modes / bframes=8 / b-adapt=2 / bframe-bias=0 / b-pyramid / b-intra / weightp / weightb / min-keyint=1 / max-keyint=360 / rc-lookahead=60 / gop-lookahead=0 / NTM4NzU=uuDQuD2mJt9fsCf / scenecut=40 / hist-scenecut=0 / radl=0 / max-cu-size=32 / min-cu-size=8 / me=3 / subme=5 / merange=25 / rdoq-level=1 / rd=4 / rdpenalty=1 / dynamic-rd=0.00 / no-rd-refine / ----- / cutree / no-sao / rect / no-amp / no-open-gop / wpp / no-pmode / no-pme / no-psnr / no-ssim / nr-intra=0 / nr-inter=0 / no-constrained-intra / no-strong-intra-smoothing / max-tu-size=16 / tu-inter-depth=2 / tu-intra-depth=2 / limit-tu=0 / qg-size=16 / qpmax=69 / qpmin=0 / ----- / cpuid=538751111039 / frame-threads=3 / numa-pools=8 / log-level=2 / input-csp=1 / input-res=1920x816 / interlace=0 / level-idc=0 / high-tier=1 / uhd-bd=0 / no-allow-non-conformance / no-repeat-headers / no-aud / no-hrd / info / hash=0 / no-temporal-layers / lookahead-slices=0 / no-splice / no-intra-refresh / ssim-rd / signhide / no-tskip / max-merge=5 / temporal-mvp / no-frame-dup / no-hme / no-analyze-src-pics / no-sao-non-deblock / selective-sao=0 / no-early-skip / rskip / no-fast-intra / no-tskip-fast / no-splitrd-skip / zone-count=0 / no-strict-cbr / no-rc-grain / no-const-vbv / sar=1 / overscan=0 / videoformat=5 / range=0 / colorprim=1 / transfer=2 / colormatrix=2 / chromaloc=0 / display-window=0 / cll=0,0 / min-luma=0 / max-luma=1023 / log2-max-poc-lsb=8 / vui-timing-info / vui-hrd-info / slices=1 / no-opt-qp-pps / no-opt-ref-list-length-pps / no-multi-pass-opt-rps / scenecut-bias=0.05 / hist-threshold=0.01 / no-opt-cu-delta-qp / no-aq-motion / no-hdr10 / no-hdr10-opt / no-dhdr10-opt / no-idr-recovery-sei / analysis-reuse-level=0 / analysis-save-reuse-level=0 / analysis-load-reuse-level=0 / scale-factor=0 / refine-intra=0 / refine-inter=0 / refine-mv=1 / refine-ctu-distortion=0 / no-limit-sao / ctu-info=0 / no-lowpass-dct / refine-analysis-type=0 / copy-pic=1 / max-ausize-factor=1.0 / no-dynamic-refine / no-single-sei / no-hevc-aq / no-svt / no-field / qp-adaptation-range=1.00 / no-scenecut-aware-qpconformance-window-offsets / right=0 / bottom=0 / NTM4NzU= / decoder-max-rate=0
  34. Default                                  : Yes
  35. Forced                                   : No
  36. Color range                              : Limited
  37. Color primaries                          : BT.709
  38. Audio
  39. ID                                       : 2
  40. Format                                   : AC-3
  41. Format/Info                              : Audio Coding 3
  42. Commercial name                          : Dolby Digital
  43. Codec ID                                 : A_AC3
  44. Duration                                 : 1 h 28 min
  45. Bit rate mode                            : Constant
  46. Bit rate                                 : 640 kb/s
  47. Channel(s)                               : 6 channels
  48. Channel layout                           : L R C LFE Ls Rs
  49. Sampling rate                            : 48.0 kHz
  50. Frame rate                               : 31.250 FPS (1536 SPF)
  51. Compression mode                         : Lossy
  52. Stream size                              : 407 MiB (12%)
  53. Language                                 : English
  54. Service kind                             : Complete Main
  55. Default                                  : Yes
  56. Forced                                   : No
  57. Text #1
  58. ID                                       : 3
  59. Format                                   : PGS
  60. Muxing mode                              : zlib
  61. Codec ID                                 : S_HDMV/PGS
  62. Codec ID/Info                            : Picture based subtitle format used on BDs/HD-DVDs
  63. Duration                                 : 1 h 28 min
  64. Bit rate                                 : 16.4 kb/s
  65. Count of elements                        : 2112
  66. Stream size                              : 10.4 MiB (0%)
  67. Language                                 : Chinese
  68. Default                                  : Yes
  69. Forced                                   : Yes
  70. Text #2
  71. ID                                       : 4
  72. Format                                   : PGS
  73. Muxing mode                              : zlib
  74. Codec ID                                 : S_HDMV/PGS
  75. Codec ID/Info                            : Picture based subtitle format used on BDs/HD-DVDs
  76. Duration                                 : 1 h 25 min
  77. Bit rate                                 : 42.5 kb/s
  78. Count of elements                        : 2440
  79. Stream size                              : 25.9 MiB (1%)
  80. Title                                    : English-PGS
  81. Language                                 : English
  82. Default                                  : No
  83. Forced                                   : No
  84. Menu
  85. 00:00:00.000                             : en:Chapter 01
  86. 00:05:05.263                             : en:Chapter 02
  87. 00:09:19.600                             : en:Chapter 03
  88. 00:14:26.198                             : en:Chapter 04
  89. 00:19:45.142                             : en:Chapter 05
  90. 00:23:39.793                             : en:Chapter 06
  91. 00:28:47.142                             : en:Chapter 07
  92. 00:34:03.291                             : en:Chapter 08
  93. 00:40:01.440                             : en:Chapter 09
  94. 00:46:18.609                             : en:Chapter 10
  95. 00:49:56.368                             : en:Chapter 11
  96. 00:54:46.616                             : en:Chapter 12
  97. 00:57:43.084                             : en:Chapter 13
  98. 01:01:56.170                             : en:Chapter 14
  99. 01:05:18.205                             : en:Chapter 15
  100. 01:08:21.889                             : en:Chapter 16
  101. 01:13:27.236                             : en:Chapter 17
  102. 01:19:02.529                             : en:Chapter 18
  103. 01:23:29.421                             : en:Chapter 19
  104. 01:25:34.379                             : en:Chapter 20
复制代码

















保举请利用qBittorrent,utorrent,transmission等标准BT软件下载!以获得最快速度。奉求保种!





回复

使用道具 举报

懒得打字嘛,点击右侧快捷回复 【右侧内容,后台自定义】
您需要登录后才可以回帖 登录 | 立即加入

本版积分规则

Archiver|小黑屋| 蓝光电影网 |网站地图

Copyright © 2021 Comsenz Inc. Powered by 蓝光电影网

蓝光电影网

本站内容由用户自主分享和转载自互联网,转载目的在于传递更多信息,并不代表本网赞同其观点和对其真实性负责。

如有侵权、违反国家法律政策行为,请联系我们,我们会第一时间及时清除和处理!

举报反馈邮箱:[email protected]

快速回复 返回顶部 返回列表