找回密码

蓝光电影网

查看: 279|回复: 3

[2160p] 一触即发[杜比视界版本][中文字幕].Jack.Ryan.Shadow.Recruit.2014.2160p.DoVi.HDR.UHD.BluRay.DTS-HD.MA.7.1.x265-10bit-BATHD 21.36GB

[复制链接]
蓝光币
7
发表于 2022-7-27 02:37:47 | 显示全部楼层 |阅读模式


◎标  题 一触即发
◎译  名 杰克莱恩:诡影使命(台) / 惊天谍变:魅影特攻(港) / 杰克·瑞恩:惊天圈套 / 杰克·莱恩:秘影一号 / Jack Ryan: Shadow One / Moscow
◎片  名 Jack Ryan: Shadow Recruit
◎年  代 2014
◎产  地 美国 / 俄罗斯
◎类  别 剧情 / 行动 / 惊悚
◎语  言 英语 / 俄语
◎上映日期 2014-01-17(美国/中国大陆) / 2014-01-15(菲律宾)
◎IMDb评分 6.2/10 (128416人评价)
◎IMDb链接 https://www.imdb.com/title/tt1205537/
◎豆瓣评分 5.7/10 (30840人评价)
◎豆瓣链接 https://movie.douban.com/subject/3014957/
◎片  长 105分钟
◎导  演 肯尼思·布拉纳 Kenneth Branagh
◎编  剧 亚当·科扎德 Adam Cozad
       大卫·凯普 David Koepp
       汤姆·克兰西 Tom Clancy
◎演  员 克里斯·派恩 Chris Pine
       凯文·科斯特纳 Kevin Costner
       肯尼思·布拉纳 Kenneth Branagh
       凯拉·奈特莉 Keira Knightley
       嘉玛·陈 Gemma Chan
       侬索·阿诺斯 Nonso Anozie
       科鲁姆·费奥瑞 Colm Feore
       凯伦·戴维 Karen David
       大卫·佩默 David Paymer
       汉娜·泰勒-高登 Hannah Taylor-Gordon
       朱利斯塔·萨尔塞多 Julisita Salcedo
       黛博拉·罗桑 Deborah Rosan
       李·阿斯奎斯-柯 Lee Asquith-Coe
       彼得·安德森 Peter Andersson
       马特·里皮 Matt Rippy
       莱恩·库德里亚维斯基 Lenn Kudrjawizki
       安得烈·拜伦 Andrew Byron
       德里克·李 Derek Lea
       乔格·尼可洛夫 Georg Nikoloff
       亚历山大·梅尔库里 Alexander Mercury
       麦克·休斯顿 Mike Houston
       小田部阿基 Akie Kotabe
       亚历克·乌特戈夫 Alec Utgoff
       圣蒂诺·方塔纳 Santino Fontana
       博格丹·科米诺夫斯基 Bogdan Kominowski
       伊索贝尔·普拉夫达 Isobel Pravda
       帕克·索耶 Parker Sawyers
       安库塔·布雷班 Ancuta Breaban
       金永钢 Yonggang Jin
       洛伦佐·迪·博纳文图拉 Lorenzo di Bonaventura
       帕特里克·道尔 Patrick Doyle
       哈里斯·杰姆巴鲁克斯 Haris Zambarloukos
       司维维 Weiwei Si
◎标  签 美国 / 行动 / 奸细 / 2014 / 美国电影 / ChrisPine / KeiraKnightley / 剧情
◎简  介
  水兵陆战队员杰克·帕特里克·赖恩(克里斯·派恩 Chris Pine 饰)是一个具有激烈爱国情怀的热血男儿,在阿富汗履利用命时代,他所乘坐的直升机遭到仇敌的炮火进犯,杰克也身受重伤,几近死亡。康复时代,他与善良美丽的医学院门生凯茜·穆勒(凯拉·奈特莉 Keira Knightley 饰)相知相恋,与此同时他还被CIA官员托马斯·哈柏(凯文·科斯特纳 Kevin Costner 饰),伤愈后潜入华尔街,以分析师的身份监控每一个能够风险到国家平安地资金源。身份和使命极端机密的杰克对女友也要三缄其口,为此不能不承受各类莫名的质疑和猜测。                                    
                                某天,杰克发现俄罗斯能够正操纵金融向美国策动潜伏的可骇攻击。为了查明真相, 他单身前往俄罗斯,谁曾想却置身于最危险的地步……
  1. ##### MediaInfo ######
  2. General
  3. Unique ID                                : 313228164117828244482697899094103033964 (0xEBA58CD16325736050BD745467DC086C)
  4. Complete name                            : Jack.Ryan.Shadow.Recruit.2014.2160p.DoVi.HDR.UHD.BluRay.DTS-HD.MA.7.1.x265-10bit-BATHD.mkv
  5. Format                                   : Matroska
  6. Format version                           : Version 4
  7. File size                                : 21.4 GiB
  8. Duration                                 : 1 h 45 min
  9. Overall bit rate mode                    : Variable
  10. Overall bit rate                         : 29.0 Mb/s
  11. Movie name                               : Jack Ryan: Shadow Recruit
  12. Encoded date                             : UTC 2022-07-25 05:06:01
  13. Writing application                      : mkvmerge v69.0.0 ('Day And Age') 64-bit
  14. Writing library                          : libebml v1.4.2 + libmatroska v1.6.4
  15. Cover                                    : Yes
  16. Attachments                              : cover.jpg
  17. Video
  18. ID                                       : 1
  19. Format                                   : HEVC
  20. Format/Info                              : High Efficiency Video Coding
  21. Format profile                           : Main [email protected]@High
  22. HDR format                               : SMPTE ST 2086, HDR10 compatible
  23. Codec ID                                 : V_MPEGH/ISO/HEVC
  24. Duration                                 : 1 h 45 min
  25. Bit rate                                 : 23.7 Mb/s
  26. Width                                    : 3 840 pixels
  27. Height                                   : 1 608 pixels
  28. Display aspect ratio                     : 2.40:1
  29. Frame rate mode                          : Constant
  30. Frame rate                               : 23.976 (24000/1001/53875) FPS
  31. Color space                              : YUV
  32. Chroma subsampling                       : 4:2:0
  33. Bit depth                                : 10 bits
  34. Bits/(Pixel*Frame)                       : 0.160
  35. Stream size                              : 17.5 GiB (82%)
  36. Writing library                          : x265 - H.265/HEVC codec
  37. Default                                  : Yes
  38. Forced                                   : No
  39. Color range                              : Limited
  40. Color primaries                          : BT.2020
  41. Transfer characteristics                 : PQ
  42. Matrix coefficients                      : BT.2020 non-constant
  43. Mastering display color primaries        : Display P3
  44. Mastering display luminance              : min: 0.0001 cd/m2, max: 1000 cd/m2
  45. Audio
  46. ID                                       : 2
  47. ID in the original source medium         : 4352 (0x1100)
  48. Format                                   : DTS XLL
  49. Format/Info                              : Digital Theater Systems
  50. Commercial name                          : DTS-HD Master Audio
  51. Codec ID                                 : A_DTS
  52. Duration                                 : 1 h 45 min
  53. Bit rate mode                            : Variable
  54. Bit rate                                 : 5 217 kb/s
  55. Channel(s)                               : 8 channels
  56. Channel layout                           : C L R LFE Lb Rb Lss Rss
  57. Sampling rate                            : 48.0 kHz
  58. Frame rate                               : 93.750 FPS (512 SPF)
  59. Bit depth                                : 24 bits
  60. Compression mode                         : Lossless
  61. Stream size                              : 3.85 GiB (18%)
  62. Language                                 : English
  63. Default                                  : Yes
  64. Forced                                   : No
  65. Original source medium                   : Blu-ray
  66. Text #1
  67. ID                                       : 3
  68. ID in the original source medium         : 4768 (0x12A0)
  69. Format                                   : PGS
  70. Muxing mode                              : zlib
  71. Codec ID                                 : S_HDMV/PGS
  72. Codec ID/Info                            : Picture based subtitle format used on BDs/HD-DVDs
  73. Duration                                 : 1 h 37 min
  74. Bit rate                                 : 34.4 kb/s
  75. Count of elements                        : 2496
  76. Stream size                              : 24.0 MiB (0%)
  77. Language                                 : English
  78. Default                                  : Yes
  79. Forced                                   : No
  80. Original source medium                   : Blu-ray
  81. Text #2
  82. ID                                       : 4
  83. ID in the original source medium         : 4769 (0x12A1)
  84. Format                                   : PGS
  85. Muxing mode                              : zlib
  86. Codec ID                                 : S_HDMV/PGS
  87. Codec ID/Info                            : Picture based subtitle format used on BDs/HD-DVDs
  88. Duration                                 : 1 h 37 min
  89. Bit rate                                 : 40.9 kb/s
  90. Count of elements                        : 2990
  91. Stream size                              : 28.6 MiB (0%)
  92. Language                                 : English
  93. Default                                  : Yes
  94. Forced                                   : No
  95. Original source medium                   : Blu-ray
  96. Text #3
  97. ID                                       : 5
  98. ID in the original source medium         : 4770 (0x12A2)
  99. Format                                   : PGS
  100. Muxing mode                              : zlib
  101. Codec ID                                 : S_HDMV/PGS
  102. Codec ID/Info                            : Picture based subtitle format used on BDs/HD-DVDs
  103. Duration                                 : 1 h 44 min
  104. Bit rate                                 : 19.6 kb/s
  105. Count of elements                        : 2180
  106. Stream size                              : 14.7 MiB (0%)
  107. Language                                 : Chinese
  108. Default                                  : Yes
  109. Forced                                   : No
  110. Original source medium                   : Blu-ray
  111. Menu
  112. 00:00:00.000                             : en:Chapter 01
  113. 00:05:45.470                             : en:Chapter 02
  114. 00:12:02.471                             : en:Chapter 03
  115. 00:18:11.006                             : en:Chapter 04
  116. 00:23:38.792                             : en:Chapter 05
  117. 00:31:19.794                             : en:Chapter 06
  118. 00:40:26.298                             : en:Chapter 07
  119. 00:48:47.466                             : en:Chapter 08
  120. 00:57:28.069                             : en:Chapter 09
  121. 01:06:19.642                             : en:Chapter 10
  122. 01:13:07.466                             : en:Chapter 11
  123. 01:21:53.867                             : en:Chapter 12
  124. 01:27:07.096                             : en:Chapter 13
  125. 01:35:21.507                             : en:Chapter 14
  126. 01:38:55.054                             : en:Chapter 15
复制代码



保举请利用qBittorrent,utorrent,transmission等标准BT软件下载!以获得最快速度。奉求保种!





回复

使用道具 举报

蓝光币
80
发表于 2022-7-27 08:48:53 | 显示全部楼层

我看不错噢 谢谢楼主!蓝光电影网越来越好!
回复 支持 反对

使用道具 举报

蓝光币
63
发表于 2022-7-27 14:39:32 | 显示全部楼层

楼主太厉害了!楼主,电影应该很好看我觉得蓝光电影网真是个好地方!
回复 支持 反对

使用道具 举报

蓝光币
28
发表于 2022-7-27 18:39:14 | 显示全部楼层


我看不错噢 谢谢楼主!蓝光电影网越来越好!
回复 支持 反对

使用道具 举报

懒得打字嘛,点击右侧快捷回复 【右侧内容,后台自定义】
您需要登录后才可以回帖 登录 | 立即加入

本版积分规则

Archiver|小黑屋| 蓝光电影网 |网站地图

Copyright © 2021 Comsenz Inc. Powered by 蓝光电影网

蓝光电影网

本站内容由用户自主分享和转载自互联网,转载目的在于传递更多信息,并不代表本网赞同其观点和对其真实性负责。

如有侵权、违反国家法律政策行为,请联系我们,我们会第一时间及时清除和处理!

举报反馈邮箱:[email protected]

快速回复 返回顶部 返回列表