找回密码

蓝光电影网

查看: 92|回复: 2

[2160p] 开心汉堡店[简繁英字幕].The.Bob's.Burgers.Movie.2022.2160p.HDR.UHD.BluRay.DTS.x265-10bit-BATHD 9.56GB

[复制链接]
蓝光币
7
发表于 2022-7-27 02:37:46 | 显示全部楼层 |阅读模式


◎标  题 高兴汉堡店
◎译  名 高兴汉堡店电影版
◎片  名 Bob's Burgers: The Movie
◎年  代 2022
◎产  地 美国
◎类  别 笑剧 / 动画 / 歌舞 / 冒险
◎语  言 英语 / 德语
◎上映日期 2022-05-27(美国)
◎IMDb链接 https://www.imdb.com/title/tt7466442/
◎豆瓣评分 7.3/10 (148人评价)
◎豆瓣链接 https://movie.douban.com/subject/27162630/
◎导  演 劳伦·布查德 Loren Bouchard
       伯纳德·德里曼 Bernard Derriman
◎编  剧 劳伦·布查德 Loren Bouchard
       诺拉·史姑娘 Nora Smith
       吉姆·达特里夫 Jim Dauterive
◎演  员 H·乔恩·本杰明 H. Jon Benjamin
       约翰·罗伯茨 John Roberts
       丹·明茨 Dan Mintz
       尤金·米尔曼 Eugene Mirman
       克里斯汀·沙尔 Kristen Schaal
       大卫·韦恩 David Wain
       扎克·加利凡纳基斯 Zach Galifianakis
       凯文·克莱恩 Kevin Kline
       拉里·墨菲 Larry Murphy
       盖瑞·科尔 Gary Cole
       保罗·F·汤普金斯 Paul F. Tompkins
       约翰·Q·库宾 John Q. Kubin
       尼克·克罗尔 Nick Kroll
       克雷格·安东 Craig Anton
       大卫·赫尔曼 David Herman
       杰米·莫耶 Jaime Moyer
       布莱恩·赫斯基 Brian Huskey
       斯蒂芬妮·比翠丝 Stephanie Beatriz
       乔丹·皮尔 Jordan Peele
       罗布·许贝尔 Rob Huebel
       帕维什·齐纳 Parvesh Cheena
       妮可·拜尔 Nicole Byer
       罗伯特·本·加兰特 Robert Ben Garant
       劳拉·希尔维曼 Laura Silverman
       阿兹·安萨里 Aziz Ansari
       山姆·塞德 Sam Seder
       保罗·路德 Paul Rudd
       珍妮·斯蕾特 Jenny Slate
       萨拉·西尔弗曼 Sarah Silverman
       阿什利·妮可·布莱克 Ashley Nicole Black
       布鲁克·迪尔曼 Brooke Dillman
       劳伦·布查德 Loren Bouchard
       凯蒂·克朗 Katie Crown
       菲尔·拉马 Phil LaMarr
       本·普罗斯基 Ben Pronsky
       米歇尔·拉夫 Michelle Ruff
◎简  介
  本片为热门动画《高兴汉堡店》的电影版。                                    
                                故事围绕一家名为“鲍勃汉堡店”的餐厅展开,报告店东鲍勃一家和邻里之间的风趣故事。此次他们碰到了大麻烦,汉堡店门口陷落出大坑,鲍勃和琳达还得继续保持餐厅的买卖。与此同时,孩子们也正试图揭开一个能帮助拯救自家餐厅的谜题。
  1. ##### MediaInfo ######
  2. General
  3. Unique ID                                : 152799620288567911701229328163959480936 (0x72F422EC73C7A3FA095E59B235002268)
  4. Complete name                            : The.Bob's.Burgers.Movie.2022.2160p.HDR.UHD.BluRay.DTS.x265-10bit-BATHD.mkv
  5. Format                                   : Matroska
  6. Format version                           : Version 4
  7. File size                                : 9.56 GiB
  8. Duration                                 : 1 h 41 min
  9. Overall bit rate mode                    : Variable
  10. Overall bit rate                         : 13.4 Mb/s
  11. Movie name                               : The Bob's Burgers Movie 2022 2160p HDR UHD BluRay DTS x265-10bit-HDS
  12. Encoded date                             : UTC 2022-07-25 15:26:09
  13. Writing application                      : mkvmerge v69.0.0 ('Day And Age') 64-bit
  14. Writing library                          : libebml v1.4.2 + libmatroska v1.6.4
  15. Video
  16. ID                                       : 1
  17. Format                                   : HEVC
  18. Format/Info                              : High Efficiency Video Coding
  19. Format profile                           : Main [email protected]@High
  20. HDR format                               : SMPTE ST 2086, HDR10 compatible
  21. Codec ID                                 : V_MPEGH/ISO/HEVC
  22. Duration                                 : 1 h 41 min
  23. Bit rate                                 : 9 774 kb/s
  24. Width                                    : 3 840 pixels
  25. Height                                   : 1 608 pixels
  26. Display aspect ratio                     : 2.40:1
  27. Frame rate mode                          : Constant
  28. Frame rate                               : 23.976 (24000/1001/53875) FPS
  29. Color space                              : YUV
  30. Chroma subsampling                       : 4:2:0
  31. Bit depth                                : 10 bits
  32. Bits/(Pixel*Frame)                       : 0.066
  33. Stream size                              : 6.96 GiB (73%)
  34. Title                                    : @HDSky
  35. Writing library                          : x265 - H.265/HEVC codec
  36. Default                                  : Yes
  37. Forced                                   : No
  38. Color range                              : Limited
  39. Color primaries                          : BT.2020
  40. Transfer characteristics                 : PQ
  41. Matrix coefficients                      : BT.2020 non-constant
  42. Mastering display color primaries        : Display P3
  43. Mastering display luminance              : min: 0.0050 cd/m2, max: 1000 cd/m2
  44. Audio
  45. ID                                       : 2
  46. Format                                   : DTS XLL
  47. Format/Info                              : Digital Theater Systems
  48. Commercial name                          : DTS-HD Master Audio
  49. Codec ID                                 : A_DTS
  50. Duration                                 : 1 h 41 min
  51. Bit rate mode                            : Variable
  52. Bit rate                                 : 3 558 kb/s
  53. Channel(s)                               : 6 channels
  54. Channel layout                           : C L R Ls Rs LFE
  55. Sampling rate                            : 48.0 kHz
  56. Frame rate                               : 93.750 FPS (512 SPF)
  57. Bit depth                                : 24 bits
  58. Compression mode                         : Lossless
  59. Stream size                              : 2.53 GiB (26%)
  60. Title                                    : English
  61. Language                                 : English
  62. Default                                  : Yes
  63. Forced                                   : No
  64. Text #1
  65. ID                                       : 3
  66. Format                                   : PGS
  67. Muxing mode                              : zlib
  68. Codec ID                                 : S_HDMV/PGS
  69. Codec ID/Info                            : Picture based subtitle format used on BDs/HD-DVDs
  70. Duration                                 : 1 h 41 min
  71. Bit rate                                 : 80.6 kb/s
  72. Count of elements                        : 5860
  73. Stream size                              : 58.7 MiB (1%)
  74. Title                                    : ENG
  75. Language                                 : English
  76. Default                                  : Yes
  77. Forced                                   : No
  78. Text #2
  79. ID                                       : 4
  80. Format                                   : PGS
  81. Muxing mode                              : zlib
  82. Codec ID                                 : S_HDMV/PGS
  83. Codec ID/Info                            : Picture based subtitle format used on BDs/HD-DVDs
  84. Duration                                 : 1 h 41 min
  85. Bit rate                                 : 61.4 kb/s
  86. Count of elements                        : 4716
  87. Stream size                              : 44.4 MiB (0%)
  88. Title                                    : CHS
  89. Language                                 : Chinese
  90. Default                                  : Yes
  91. Forced                                   : No
  92. Text #3
  93. ID                                       : 5
  94. Format                                   : PGS
  95. Muxing mode                              : zlib
  96. Codec ID                                 : S_HDMV/PGS
  97. Codec ID/Info                            : Picture based subtitle format used on BDs/HD-DVDs
  98. Duration                                 : 1 h 41 min
  99. Bit rate                                 : 63.6 kb/s
  100. Count of elements                        : 4716
  101. Stream size                              : 46.0 MiB (0%)
  102. Title                                    : CHT
  103. Language                                 : Chinese
  104. Default                                  : Yes
  105. Forced                                   : No
  106. Menu
  107. 00:00:00.000                             : en:第 01 章
  108. 00:03:03.683                             : en:第 02 章
  109. 00:06:41.901                             : en:第 03 章
  110. 00:10:08.274                             : en:第 04 章
  111. 00:14:57.271                             : en:第 05 章
  112. 00:22:05.533                             : en:第 06 章
  113. 00:27:51.086                             : en:第 07 章
  114. 00:33:03.190                             : en:第 08 章
  115. 00:42:01.686                             : en:第 09 章
  116. 00:51:11.902                             : en:第 10 章
  117. 01:03:56.124                             : en:第 11 章
  118. 01:12:04.820                             : en:第 12 章
  119. 01:25:49.519                             : en:第 13 章
  120. 01:34:36.045                             : en:第 14 章
复制代码

















保举请利用qBittorrent,utorrent,transmission等标准BT软件下载!以获得最快速度。奉求保种!





[url=https://www.4k1080.com/data/attachment/forum/高兴汉堡店[简繁英字幕].The.Bob's.Burgers.Movie.2022.2160p.HDR.UHD.BluRay.DT.torrent]高兴汉堡店[简繁英字幕].The.Bob's.Burgers.Movie.2022.2160p.HDR.UHD.BluRay.DTS.x265-10bit-BATHD 9.56GB[/url]
回复

使用道具 举报

蓝光币
1888
发表于 2022-7-27 12:46:17 | 显示全部楼层

这个帖子不回对不起自己!我想我是一天也不能离开蓝光电影网。
回复 支持 反对

使用道具 举报

蓝光币
0
发表于 2022-7-27 21:17:10 | 显示全部楼层


怎么获得蓝光币啊
回复 支持 反对

使用道具 举报

懒得打字嘛,点击右侧快捷回复 【右侧内容,后台自定义】
您需要登录后才可以回帖 登录 | 立即加入

本版积分规则

Archiver|小黑屋| 蓝光电影网 |网站地图

Copyright © 2021 Comsenz Inc. Powered by 蓝光电影网

蓝光电影网

本站内容由用户自主分享和转载自互联网,转载目的在于传递更多信息,并不代表本网赞同其观点和对其真实性负责。

如有侵权、违反国家法律政策行为,请联系我们,我们会第一时间及时清除和处理!

举报反馈邮箱:[email protected]

快速回复 返回顶部 返回列表