找回密码

蓝光电影网

查看: 186|回复: 1

[2160p] 玻璃先生[简繁英字幕].Glass.2019.UHD.BluRay.2160p.TrueHD(Atmos).7.1.x265.10bit.HDR-ALT 12.48GB

[复制链接]
蓝光币
8
发表于 2022-7-27 02:37:49 | 显示全部楼层 |阅读模式


◎标  题 玻璃师长
◎译  名 异能仨(港) / 异裂(台) / 割裂2 / 不死劫2 / 波利师长
◎片  名 Glass
◎年  代 2019
◎产  地 美国
◎类  别 悬疑 / 惊悚 / 犯罪
◎语  言 英语
◎上映日期 2019-01-18(美国)
◎IMDb评分 6.6/10 (227503人评价)
◎IMDb链接 https://www.imdb.com/title/tt6823368/
◎豆瓣评分 6.5/10 (24969人评价)
◎豆瓣链接 https://movie.douban.com/subject/27031237/
◎片  长 129分钟
◎导  演 M·奈特·沙马兰 M. Night Shyamalan
◎编  剧 M·奈特·沙马兰 M. Night Shyamalan
◎演  员 詹姆斯·麦卡沃伊 James McAvoy
       布鲁斯·威利斯 Bruce Willis
       塞缪尔·杰克逊 Samuel L. Jackson
       安雅·泰勒-乔伊 Anya Taylor-Joy
       莎拉·保罗森 Sarah Paulson
       斯宾塞·崔特·克拉克 Spencer Treat Clark
       查莱宁·伍德拉德 Charlayne Woodard
       卢克·柯比 Luke Kirby
       亚当·大卫·汤普森 Adam David Thompson
       M·奈特·沙马兰 M. Night Shyamalan
       戴安娜·西尔弗斯 Diana Silvers
       克里·锡安 Kyli Zion
       罗素·普斯勒 Russell Posner
       罗丝玛丽·霍华德 Rosemary Howard
       莱斯利·史蒂芬森 Leslie Stefanson
       尤基·华盛顿 Ukee Washington
       布赖恩·安东尼·威尔逊 Brian Anthony Wilson
       托拜厄斯·西格尔 Tobias Segal
       蒂姆·杜奎特 Tim Duquette
       朱塞佩·阿迪佐内 Giuseppe Ardizzone
       大卫·尼尔里姆 David Kneeream
       布莱恩·多纳休 Brian Donahue
       奥罗拉·卡琳 Aurora Karine
       迈克尔·J·克雷西克 Michael J. Kraycik
       迈克尔·J·莱昂斯 Michael J. Lyons
       萨曼莎·斯特芬 Samantha Steffen
       莎伊娜·瑞恩 Shayna Ryan
       乔恩·道格拉斯·雷尼 Jon Douglas Rainey
       M·奈特·沙马兰 M. Night Shyamalan
       迈克·吉奥拉基斯 Mike Gioulakis
       克里·锡安 Kyli Zion
       简·帕克·史姑娘 Jane Park Smith
       杨罗布 Rob Yang
◎标  签 悬疑 / 美国 / 品德割裂 / 惊悚 / 2019 / 超自然 / 超级豪杰 / 犯罪
◎简  介
  故事报告玻璃师长(塞缪尔·杰克逊 饰)发现大卫·杜恩(布鲁斯·威利斯 饰)正在追捕凯文·温德尔·克鲁伯(詹姆斯·麦卡沃伊 饰)的品德割裂化身之一“野兽”,而他手中则把握对两者来说相当重要的奥秘......
  1. ##### MediaInfo ######
  2. General
  3. Unique ID                                : 217119992402336211484702816862371133434 (0xA357CA1BF8292EA572BFF76B06B937FA)
  4. Complete name                            : Glass.2019.UHD.BluRay.2160p.TrueHD(Atmos).7.1.x265.10bit.HDR-ALT.mkv
  5. Format                                   : Matroska
  6. Format version                           : Version 4
  7. File size                                : 12.5 GiB
  8. Duration                                 : 2 h 9 min
  9. Overall bit rate mode                    : Variable
  10. Overall bit rate                         : 13.9 Mb/s
  11. Encoded date                             : UTC 2019-07-12 08:07:27
  12. Writing application                      : mkvmerge v35.0.0 ('All The Love In The World') 64-bit
  13. Writing library                          : libebml v1.3.9 + libmatroska v1.5.2
  14. Video
  15. ID                                       : 1
  16. Format                                   : HEVC
  17. Format/Info                              : High Efficiency Video Coding
  18. Format profile                           : Main [email protected]@High
  19. HDR format                               : SMPTE ST 2086, HDR10 compatible
  20. Codec ID                                 : V_MPEGH/ISO/HEVC
  21. Duration                                 : 2 h 9 min
  22. Bit rate                                 : 9 156 kb/s
  23. Width                                    : 3 840 pixels
  24. Height                                   : 1 606 pixels
  25. Display aspect ratio                     : 2.40:1
  26. Frame rate mode                          : Constant
  27. Frame rate                               : 23.976 (24000/1001/53875) FPS
  28. Color space                              : YUV
  29. Chroma subsampling                       : 4:2:0 (Type 2)
  30. Bit depth                                : 10 bits
  31. Bits/(Pixel*Frame)                       : 0.062
  32. Stream size                              : 8.25 GiB (66%)
  33. Title                                    : HEVC, [email protected]@High, 24/1.001 fps @ 9156 kbps
  34. Writing library                          : x265 3.0_Au+4-dcbec33bfb0f:[Windows][GCC 8.2.1][64 bit] 10bit
  35. Encoding settings                        : cpuid=538751111039 / frame-threads=5 / numa-pools=44,44 / wpp / no-pmode / no-pme / no-psnr / no-ssim / log-level=2 / input-csp=1 / input-res=3840x1606 / interlace=0 / total-frames=185612 / level-idc=51 / high-tier=1 / uhd-bd=0 / ref=4 / no-allow-non-conformance / repeat-headers / annexb / no-aud / hrd / info / hash=0 / no-temporal-layers / no-open-gop / min-keyint=24 / keyint=240 / gop-lookahead=0 / bframes=8 / b-adapt=2 / b-pyramid / bframe-bias=0 / rc-lookahead=25 / lookahead-slices=0 / NTM4NzU=uuDQuD2mJt9fsCf / scenecut=40 / radl=0 / no-splice / no-intra-refresh / ctu=64 / min-cu-size=8 / no-rect / no-amp / max-tu-size=32 / tu-inter-depth=3 / tu-intra-depth=3 / limit-tu=4 / rdoq-level=2 / dynamic-rd=0.00 / no-ssim-rd / signhide / no-tskip / nr-intra=0 / nr-inter=0 / no-constrained-intra / no-strong-intra-smoothing / max-merge=4 / limit-refs=1 / limit-modes / me=3 / subme=4 / merange=25 / temporal-mvp / weightp / weightb / no-analyze-src-pics / deblock=-3:-3 / no-sao / no-sao-non-deblock / rd=6 / no-early-skip / rskip / no-fast-intra / no-tskip-fast / no-cu-lossless / b-intra / no-splitrd-skip / rdpenalty=0 / psy-rd=2.00 / psy-rdoq=1.00 / no-rd-refine / no-lossless / cbqpoffs=0 / crqpoffs=0 / rc=crf / crf=17.0 / qcomp=0.65 / qpstep=4 / stats-write=0 / stats-read=0 / vbv-maxrate=160000 / vbv-bufsize=160000 / vbv-init=0.9 / crf-max=0.0 / crf-min=0.0 / ipratio=1.30 / pbratio=1.20 / aq-mode=3 / aq-strength=0.85 / cutree / zone-count=0 / no-strict-cbr / qg-size=32 / no-rc-grain / qpmax=69 / qpmin=0 / no-const-vbv / sar=1 / overscan=0 / videoformat=5 / range=0 / colorprim=9 / transfer=16 / colormatrix=9 / chromaloc=1 / chromaloc-top=2 / chromaloc-bottom=2 / display-window=0 / master-display=G(13250,34500)B(7500,3000)R(34000,16000)WP(15635,16450)L(10000000,50) / max-cll=457,182 / min-luma=0 / max-luma=1023 / log2-max-poc-lsb=8 / vui-timing-info / vui-hrd-info / slices=1 / no-opt-qp-pps / no-opt-ref-list-length-pps / no-multi-pass-opt-rps / scenecut-bias=0.05 / no-opt-cu-delta-qp / no-aq-motion / hdr / hdr-opt / no-dhdr10-opt / no-idr-recovery-sei / analysis-reuse-level=5 / scale-factor=0 / refine-intra=0 / refine-inter=0 / refine-mv=0 / refine-ctu-distortion=0 / no-limit-sao / ctu-info=0 / no-lowpass-dct / refine-analysis-type=0 / copy-pic=1 / max-ausize-factor=1.0 / no-dynamic-refine / no-single-sei / no-hevc-aq / qp-adaptation-range=1.00
  36. Language                                 : English
  37. Default                                  : Yes
  38. Forced                                   : No
  39. Color range                              : Limited
  40. Color primaries                          : BT.2020
  41. Transfer characteristics                 : PQ
  42. Matrix coefficients                      : BT.2020 non-constant
  43. Mastering display color primaries        : Display P3
  44. Mastering display luminance              : min: 0.0050 cd/m2, max: 1000 cd/m2
  45. Maximum Content Light Level              : 457 cd/m2
  46. Maximum Frame-Average Light Level        : 182 cd/m2
  47. Audio #1
  48. ID                                       : 2
  49. Format                                   : MLP FBA 16-ch
  50. Format/Info                              : Meridian Lossless Packing FBA with 16-channel presentation
  51. Commercial name                          : Dolby TrueHD with Dolby Atmos
  52. Codec ID                                 : A_TRUEHD
  53. Duration                                 : 2 h 9 min
  54. Bit rate mode                            : Variable
  55. Bit rate                                 : 4 109 kb/s
  56. Maximum bit rate                         : 7 326 kb/s
  57. Channel(s)                               : 8 channels
  58. Channel layout                           : L R C LFE Ls Rs Lb Rb
  59. Sampling rate                            : 48.0 kHz
  60. Frame rate                               : 1 200.000 FPS (40 SPF)
  61. Compression mode                         : Lossless
  62. Stream size                              : 3.70 GiB (30%)
  63. Title                                    : English Dolby TrueHD 7.1 (Atmos) @ 4557 kbps
  64. Language                                 : English
  65. Default                                  : Yes
  66. Forced                                   : No
  67. Number of dynamic objects                : 11
  68. Bed channel count                        : 1 channel
  69. Bed channel configuration                : LFE
  70. Audio #2
  71. ID                                       : 3
  72. Format                                   : AC-3
  73. Format/Info                              : Audio Coding 3
  74. Commercial name                          : Dolby Digital
  75. Codec ID                                 : A_AC3
  76. Duration                                 : 2 h 9 min
  77. Bit rate mode                            : Constant
  78. Bit rate                                 : 448 kb/s
  79. Channel(s)                               : 6 channels
  80. Channel layout                           : L R C LFE Ls Rs
  81. Sampling rate                            : 48.0 kHz
  82. Frame rate                               : 31.250 FPS (1536 SPF)
  83. Compression mode                         : Lossy
  84. Stream size                              : 413 MiB (3%)
  85. Title                                    : English Dolby 5.1-EX @ 448 kbps
  86. Language                                 : English
  87. Service kind                             : Complete Main
  88. Default                                  : No
  89. Forced                                   : No
  90. Text #1
  91. ID                                       : 4
  92. Format                                   : PGS
  93. Codec ID                                 : S_HDMV/PGS
  94. Codec ID/Info                            : Picture based subtitle format used on BDs/HD-DVDs
  95. Duration                                 : 2 h 2 min
  96. Bit rate                                 : 36.1 kb/s
  97. Count of elements                        : 3130
  98. Stream size                              : 31.6 MiB (0%)
  99. Title                                    : Eng/SUP
  100. Language                                 : English
  101. Default                                  : No
  102. Forced                                   : No
  103. Text #2
  104. ID                                       : 5
  105. Format                                   : PGS
  106. Codec ID                                 : S_HDMV/PGS
  107. Codec ID/Info                            : Picture based subtitle format used on BDs/HD-DVDs
  108. Duration                                 : 2 h 2 min
  109. Bit rate                                 : 16.0 kb/s
  110. Count of elements                        : 2402
  111. Stream size                              : 14.1 MiB (0%)
  112. Title                                    : Chs/SUP  简体
  113. Language                                 : Chinese
  114. Default                                  : Yes
  115. Forced                                   : No
  116. Text #3
  117. ID                                       : 6
  118. Format                                   : PGS
  119. Codec ID                                 : S_HDMV/PGS
  120. Codec ID/Info                            : Picture based subtitle format used on BDs/HD-DVDs
  121. Duration                                 : 2 h 2 min
  122. Bit rate                                 : 18.6 kb/s
  123. Count of elements                        : 2402
  124. Stream size                              : 16.3 MiB (0%)
  125. Title                                    : Cht/SUP  繁体
  126. Language                                 : Chinese
  127. Default                                  : No
  128. Forced                                   : No
  129. Menu
  130. 00:00:00.000                             : en:绗?01 绔?
  131. 00:04:08.457                             : en:绗?02 绔?
  132. 00:09:36.367                             : en:绗?03 绔?
  133. 00:14:30.078                             : en:绗?04 绔?
  134. 00:19:49.897                             : en:绗?05 绔?
  135. 00:24:41.063                             : en:绗?06 绔?
  136. 00:29:45.826                             : en:绗?07 绔?
  137. 00:35:00.598                             : en:绗?08 绔?
  138. 00:39:07.595                             : en:绗?09 绔?
  139. 00:47:28.220                             : en:绗?10 绔?
  140. 00:57:16.224                             : en:绗?11 绔?
  141. 01:02:55.271                             : en:绗?12 绔?
  142. 01:09:26.829                             : en:绗?13 绔?
  143. 01:14:30.299                             : en:绗?14 绔?
  144. 01:21:43.774                             : en:绗?15 绔?
  145. 01:30:10.530                             : en:绗?16 绔?
  146. 01:38:15.515                             : en:绗?17 绔?
  147. 01:44:08.742                             : en:绗?18 绔?
  148. 01:54:07.215                             : en:绗?19 绔?
  149. 02:03:00.290                             : en:绗?20 绔?
复制代码

















保举请利用qBittorrent,utorrent,transmission等标准BT软件下载!以获得最快速度。奉求保种!





回复

使用道具 举报

蓝光币
148
发表于 2022-7-28 09:20:38 | 显示全部楼层
不错,不错,很好
回复 支持 反对

使用道具 举报

懒得打字嘛,点击右侧快捷回复 【右侧内容,后台自定义】
您需要登录后才可以回帖 登录 | 立即加入

本版积分规则

Archiver|小黑屋| 蓝光电影网 |网站地图

Copyright © 2021 Comsenz Inc. Powered by 蓝光电影网

蓝光电影网

本站内容由用户自主分享和转载自互联网,转载目的在于传递更多信息,并不代表本网赞同其观点和对其真实性负责。

如有侵权、违反国家法律政策行为,请联系我们,我们会第一时间及时清除和处理!

举报反馈邮箱:[email protected]

快速回复 返回顶部 返回列表