找回密码

蓝光电影网

查看: 107|回复: 2

[2160p] 哥斯拉[国英多音轨/繁英字幕].Godzilla.2014.UHD.BluRay.2160p.2Audio.TrueHD.Atmos.7.1.x265.10bit.HDR-ALT 18.44GB

[复制链接]
蓝光币
7
发表于 2022-7-27 02:37:50 | 显示全部楼层 |阅读模式


◎标  题 哥斯拉
◎译  名 哥吉拉(台) / ゴジラ
◎片  名 Godzilla
◎年  代 2014
◎产  地 美国 / 日本
◎类  别 行动 / 科幻 / 冒险 / 灾难
◎语  言 英语 / 日语
◎上映日期 2014-06-13(中国大陆) / 2014-05-08(洛杉矶首映) / 2014-05-16(美国)
◎IMDb评分 6.4/10 (401275人评价)
◎IMDb链接 https://www.imdb.com/title/tt0831387/
◎豆瓣评分 6.6/10 (191937人评价)
◎豆瓣链接 https://movie.douban.com/subject/2063914/
◎片  长 123分钟
◎导  演 加里斯·爱德华斯 Gareth Edwards
◎编  剧 麦克思·鲍伦斯坦 Max Borenstein
       戴夫·卡拉汉姆 Dave Callaham
       本多猪四郎  Ishirô Honda
       村田武雄 Takeo Murata
       香山滋 Shigeru Kayama
       弗兰克·德拉邦特 Frank Darabont
       大卫·S·高耶 David S. Goyer
       圆谷英二 Eiji Tsuburaya
◎演  员 亚伦·泰勒-约翰逊 Aaron Taylor-Johnson
       卡梅隆·CJ·亚当斯 Cameron 'CJ' Adams
       渡边谦 Ken Watanabe
       布莱恩·科兰斯顿 Bryan Cranston
       伊丽莎白·奥尔森 Elizabeth Olsen
       卡森·波尔德 Carson Bolde
       莎莉·霍金斯 Sally Hawkins
       朱丽叶·比诺什 Juliette Binoche
       大卫·斯特雷泽恩 David Strathairn
       理查德·琼斯 Richard T. Jones
       维克多·罗塞克 Victor Rasuk
       帕特里克·萨邦圭 Patrick Sabongui
       杰瑞德·基苏 Jared Keeso
       卢克·罗德里克 Luc Roderique
       詹姆斯·皮齐纳托 James Pizzinato
       埃里克·李塞德 Eric Keenleyside
       山村宪之介 Ken Yamamura
       加里·切克 Gary Chalk
       神奈川宏幸 Hiro Kanagawa
       特瑞·陈 Terry Chen
       詹姆斯·D·德弗 James D. Dever
       宝田明 Akira Takarada
       杰森·弗鲁卡瓦 Jason Furukawa
       布莱恩·马克金森 Brian Markinson
       泰·奥尔森 Ty Olsson
       阿尔·萨皮恩扎 Al Sapienza
       彼得·新田 Peter Shinkoda
       比尔·马钱特 Bill Marchant
       克里斯蒂安·特西尔 Christian Tessier
       泰勒·尼科斯 Taylor Nichols
       安东尼·科尼切尼 Anthony Konechny
       森田友希 Yuki Morita
       莱恩·爱德华兹 Lane Edwards
       基奥·伍尔福德 Keo Woolford
       托比·莱文斯 Toby Levins
       艾伦·坡尔 Aaron Pearl
       艾米·福克斯 Amy Fox
       迈克尔·丹尼斯 Michael Patrick Denis
       玛茜·T·豪斯 Marci T. House
       凯文·欧格雷迪 Kevin O'Grady
       埃里克·阿达尔 Erik Aadahl
       拉吉·K.波斯 Raj K. Bose
       佐别史郎 Shirô Sano
       史蒂文·韦格 Steven Wiig
       托马斯·图尔 Thomas Tull
       亚历山大·德斯普拉 Alexandre Desplat
       西穆斯·迈克加维 Seamus McGarvey
       鲍勃·达克萨 Bob Ducsay
       雪伦·戴维斯 Sharen Davis
       裘德·普瓦耶 Jude Poyer
       达里尔·索丘克 Daryl Sawchuk
       安德拉斯·伊克拉迪 Andras Ikladi
       戴维·温斯坦 David Weinstein
       保罗·弗拉纳根 Paul Flanagan
       Mengdi Wang Mengdi Wang
       拉法尔·迪博斯基 Rafal Dybowski
◎标  签 科幻 / 美国 / 灾难 / 怪兽 / 2014 / 行动 / 视觉 / 日本
◎简  介
  具有幸运完竣生活的大兵福德·布罗迪(亚伦·泰勒-约翰逊 Aaron Taylor-Johnson 饰),心里隐藏着一个挥之不去的阴影。15年前,他和父亲乔伊(布莱恩·科兰斯顿 Bryan Cranston 饰)、母亲桑德拉(朱丽叶·比诺什 Juliette Binoch e 饰)生活在日本。怙恃供职于一座大型核电站。就在福德的爸爸生日当天,一场突如其来的灾难摧毁了核电站,他的母亲在灾难中丧生,语焉不详的政府隐瞒真相,以避免核辐射的名义封锁了该地域。可是乔伊却从各种异状发觉到变态之处,十五年来他一向试图揭开当天的灾难之谜,终究发现这一切都是由一只如山一般庞大的怪兽所引发。                                    
                                怪兽哥斯拉从沉睡中苏醒,使人难以猜测的灾难囊括而来……
  1. ##### MediaInfo ######
  2. General
  3. Unique ID                                : 26414808567956444473218836726272666759 (0x13DF4E9CC5412CED1F8407674E8EAC87)
  4. Complete name                            : Godzilla.2014.UHD.BluRay.2160p.2Audio.TrueHD.Atmos.7.1.x265.10bit.HDR-ALT.mkv
  5. Format                                   : Matroska
  6. Format version                           : Version 4
  7. File size                                : 18.4 GiB
  8. Duration                                 : 2 h 3 min
  9. Overall bit rate mode                    : Variable
  10. Overall bit rate                         : 21.4 Mb/s
  11. Encoded date                             : UTC 2021-03-26 03:07:26
  12. Writing application                      : mkvmerge v49.0.0 ('Sick Of Losing Soulmates') 64-bit
  13. Writing library                          : libebml v1.4.0 + libmatroska v1.6.1
  14. Video
  15. ID                                       : 1
  16. Format                                   : HEVC
  17. Format/Info                              : High Efficiency Video Coding
  18. Format profile                           : Main [email protected]@High
  19. HDR format                               : SMPTE ST 2086, HDR10 compatible
  20. Codec ID                                 : V_MPEGH/ISO/HEVC
  21. Duration                                 : 2 h 3 min
  22. Bit rate                                 : 17.2 Mb/s
  23. Width                                    : 3 840 pixels
  24. Height                                   : 1 608 pixels
  25. Display aspect ratio                     : 2.40:1
  26. Frame rate mode                          : Constant
  27. Frame rate                               : 23.976 (24000/1001/53875) FPS
  28. Color space                              : YUV
  29. Chroma subsampling                       : 4:2:0 (Type 2)
  30. Bit depth                                : 10 bits
  31. Bits/(Pixel*Frame)                       : 0.116
  32. Stream size                              : 14.8 GiB (80%)
  33. Title                                    : HEVC, [email protected]@High, 24/1.001 fps @ 17188 kbps
  34. Writing library                          : x265 3.4+14-gd419c7152:[Windows][GCC 10.2.0][64 bit] 10bit
  35. Encoding settings                        : cpuid=538751111039 / frame-threads=5 / numa-pools=44,44 / wpp / pmode / pme / no-psnr / no-ssim / log-level=2 / input-csp=1 / input-res=3840x1608 / interlace=0 / total-frames=177091 / level-idc=51 / high-tier=1 / uhd-bd=0 / ref=4 / no-allow-non-conformance / repeat-headers / annexb / no-aud / hrd / info / hash=0 / no-temporal-layers / no-open-gop / min-keyint=24 / keyint=240 / gop-lookahead=0 / bframes=8 / b-adapt=2 / b-pyramid / bframe-bias=0 / rc-lookahead=25 / lookahead-slices=0 / NTM4NzU=uuDQuD2mJt9fsCf / scenecut=40 / hist-scenecut=0 / radl=0 / no-splice / no-intra-refresh / ctu=64 / min-cu-size=8 / no-rect / no-amp / max-tu-size=32 / tu-inter-depth=3 / tu-intra-depth=3 / limit-tu=4 / rdoq-level=2 / dynamic-rd=0.00 / no-ssim-rd / signhide / no-tskip / nr-intra=0 / nr-inter=0 / no-constrained-intra / no-strong-intra-smoothing / max-merge=4 / limit-refs=1 / limit-modes / me=3 / subme=4 / merange=25 / temporal-mvp / no-frame-dup / no-hme / weightp / weightb / no-analyze-src-pics / deblock=-3:-3 / no-sao / no-sao-non-deblock / rd=6 / selective-sao=0 / no-early-skip / rskip / no-fast-intra / no-tskip-fast / no-cu-lossless / b-intra / no-splitrd-skip / rdpenalty=0 / psy-rd=2.00 / psy-rdoq=1.00 / no-rd-refine / no-lossless / cbqpoffs=0 / crqpoffs=0 / rc=crf / crf=17.0 / qcomp=0.65 / qpstep=4 / stats-write=0 / stats-read=0 / vbv-maxrate=160000 / vbv-bufsize=160000 / vbv-init=0.9 / crf-max=0.0 / crf-min=0.0 / ipratio=1.30 / pbratio=1.20 / aq-mode=3 / aq-strength=0.85 / cutree / zone-count=0 / no-strict-cbr / qg-size=32 / no-rc-grain / qpmax=69 / qpmin=0 / no-const-vbv / sar=1 / overscan=0 / videoformat=5 / range=0 / colorprim=9 / transfer=16 / colormatrix=9 / chromaloc=1 / chromaloc-top=2 / chromaloc-bottom=2 / display-window=0 / master-display=G(13250,34500)B(7500,3000)R(34000,16000)WP(15635,16450)L(40000000,50) / cll=498,92 / min-luma=0 / max-luma=1023 / log2-max-poc-lsb=8 / vui-timing-info / vui-hrd-info / slices=1 / no-opt-qp-pps / no-opt-ref-list-length-pps / no-multi-pass-opt-rps / scenecut-bias=0.05 / hist-threshold=0.03 / no-opt-cu-delta-qp / no-aq-motion / hdr10 / hdr10-opt / no-dhdr10-opt / no-idr-recovery-sei / analysis-reuse-level=0 / analysis-save-reuse-level=0 / analysis-load-reuse-level=0 / scale-factor=0 / refine-intra=0 / refine-inter=0 / refine-mv=1 / refine-ctu-distortion=0 / no-limit-sao / ctu-info=0 / no-lowpass-dct / refine-analysis-type=0 / copy-pic=1 / max-ausize-factor=1.0 / no-dynamic-refine / no-single-sei / no-hevc-aq / no-svt / no-field / qp-adaptation-range=1.00 / no-scenecut-aware-qpconformance-window-offsets / right=0 / bottom=0 / NTM4NzU= / decoder-max-rate=0
  36. Language                                 : English
  37. Default                                  : Yes
  38. Forced                                   : No
  39. Color range                              : Limited
  40. Color primaries                          : BT.2020
  41. Transfer characteristics                 : PQ
  42. Matrix coefficients                      : BT.2020 non-constant
  43. Mastering display color primaries        : Display P3
  44. Mastering display luminance              : min: 0.0050 cd/m2, max: 4000 cd/m2
  45. Maximum Content Light Level              : 498 cd/m2
  46. Maximum Frame-Average Light Level        : 92 cd/m2
  47. Audio #1
  48. ID                                       : 2
  49. Format                                   : MLP FBA 16-ch
  50. Format/Info                              : Meridian Lossless Packing FBA with 16-channel presentation
  51. Commercial name                          : Dolby TrueHD with Dolby Atmos
  52. Codec ID                                 : A_TRUEHD
  53. Duration                                 : 2 h 3 min
  54. Bit rate mode                            : Variable
  55. Bit rate                                 : 3 247 kb/s
  56. Maximum bit rate                         : 5 118 kb/s
  57. Channel(s)                               : 8 channels
  58. Channel layout                           : L R C LFE Ls Rs Lb Rb
  59. Sampling rate                            : 48.0 kHz
  60. Frame rate                               : 1 200.000 FPS (40 SPF)
  61. Compression mode                         : Lossless
  62. Stream size                              : 2.79 GiB (15%)
  63. Title                                    : English Dolby TrueHD 7.1 (Atmos) @ 3695 kbps
  64. Language                                 : English
  65. Default                                  : Yes
  66. Forced                                   : No
  67. Number of dynamic objects                : 11
  68. Bed channel count                        : 1 channel
  69. Bed channel configuration                : LFE
  70. Audio #2
  71. ID                                       : 3
  72. Format                                   : AC-3
  73. Format/Info                              : Audio Coding 3
  74. Commercial name                          : Dolby Digital
  75. Codec ID                                 : A_AC3
  76. Duration                                 : 2 h 3 min
  77. Bit rate mode                            : Constant
  78. Bit rate                                 : 448 kb/s
  79. Channel(s)                               : 6 channels
  80. Channel layout                           : L R C LFE Ls Rs
  81. Sampling rate                            : 48.0 kHz
  82. Frame rate                               : 31.250 FPS (1536 SPF)
  83. Compression mode                         : Lossy
  84. Stream size                              : 394 MiB (2%)
  85. Title                                    : English AC3 5.1-EX @ 448 kbps
  86. Language                                 : English
  87. Service kind                             : Complete Main
  88. Default                                  : No
  89. Forced                                   : No
  90. Audio #3
  91. ID                                       : 4
  92. Format                                   : AC-3
  93. Format/Info                              : Audio Coding 3
  94. Commercial name                          : Dolby Digital
  95. Codec ID                                 : A_AC3
  96. Duration                                 : 2 h 3 min
  97. Bit rate mode                            : Constant
  98. Bit rate                                 : 448 kb/s
  99. Channel(s)                               : 6 channels
  100. Channel layout                           : L R C LFE Ls Rs
  101. Sampling rate                            : 48.0 kHz
  102. Frame rate                               : 31.250 FPS (1536 SPF)
  103. Compression mode                         : Lossy
  104. Stream size                              : 395 MiB (2%)
  105. Title                                    : Mandarin Dolby Digital Audio 5.1 @ 448 kbps 原盘国语
  106. Language                                 : Chinese
  107. Service kind                             : Complete Main
  108. Default                                  : No
  109. Forced                                   : No
  110. Text #1
  111. ID                                       : 5
  112. Format                                   : PGS
  113. Codec ID                                 : S_HDMV/PGS
  114. Codec ID/Info                            : Picture based subtitle format used on BDs/HD-DVDs
  115. Duration                                 : 1 h 55 min
  116. Bit rate                                 : 29.4 kb/s
  117. Count of elements                        : 2912
  118. Stream size                              : 24.3 MiB (0%)
  119. Title                                    : Eng/SUP
  120. Language                                 : English
  121. Default                                  : No
  122. Forced                                   : No
  123. Text #2
  124. ID                                       : 6
  125. Format                                   : PGS
  126. Codec ID                                 : S_HDMV/PGS
  127. Codec ID/Info                            : Picture based subtitle format used on BDs/HD-DVDs
  128. Duration                                 : 2 h 2 min
  129. Bit rate                                 : 19.9 kb/s
  130. Count of elements                        : 2404
  131. Stream size                              : 17.4 MiB (0%)
  132. Title                                    : Cht/SUP  原盘繁体
  133. Language                                 : Chinese
  134. Default                                  : Yes
  135. Forced                                   : No
  136. Menu
  137. 00:00:00.000                             : :第 01 章
  138. 00:09:21.561                             : :第 02 章
  139. 00:19:02.224                             : :第 03 章
  140. 00:30:24.489                             : :第 04 章
  141. 00:39:09.097                             : :第 05 章
  142. 00:49:42.438                             : :第 06 章
  143. 00:59:26.188                             : :第 07 章
  144. 01:09:49.268                             : :第 08 章
  145. 01:19:10.245                             : :第 09 章
  146. 01:29:56.266                             : :第 10 章
  147. 01:40:13.758                             : :第 11 章
  148. 01:52:14.561                             : :第 12 章
  149. 01:56:09.087                             : :第 13 章
复制代码

















保举请利用qBittorrent,utorrent,transmission等标准BT软件下载!以获得最快速度。奉求保种!





回复

使用道具 举报

蓝光币
65
发表于 2022-7-27 07:01:43 | 显示全部楼层
666666666666666666666666666666
回复 支持 反对

使用道具 举报

蓝光币
14
发表于 2022-7-27 08:05:34 | 显示全部楼层
好东西收藏了,感谢楼主
回复 支持 反对

使用道具 举报

懒得打字嘛,点击右侧快捷回复 【右侧内容,后台自定义】
您需要登录后才可以回帖 登录 | 立即加入

本版积分规则

Archiver|小黑屋| 蓝光电影网 |网站地图

Copyright © 2021 Comsenz Inc. Powered by 蓝光电影网

蓝光电影网

本站内容由用户自主分享和转载自互联网,转载目的在于传递更多信息,并不代表本网赞同其观点和对其真实性负责。

如有侵权、违反国家法律政策行为,请联系我们,我们会第一时间及时清除和处理!

举报反馈邮箱:[email protected]

快速回复 返回顶部 返回列表