找回密码

蓝光电影网

查看: 264|回复: 5

[2160p] 角斗士[繁英字幕].Gladiator.2000.UHD.BluRay.2160p.DTS-X.MA.7.1.x265.10bit.HDR-ALT 24.85GB

[复制链接]
蓝光币
8
发表于 2022-7-27 02:37:51 | 显示全部楼层 |阅读模式


◎标  题 角斗士
◎译  名 帝国骄雄(港) / 神鬼战士(台) / 鬼神战士
◎片  名 Gladiator
◎年  代 2000
◎产  地 美国 / 英国 / 马耳他 / 摩洛哥
◎类  别 剧情 / 行动 / 冒险
◎语  言 英语
◎上映日期 2000-05-05(美国)
◎IMDb评分 8.5/10 (1415476人评价)
◎IMDb链接 https://www.imdb.com/title/tt0172495/
◎豆瓣评分 8.5/10 (197271人评价)
◎豆瓣链接 https://movie.douban.com/subject/1293530/
◎片  长 155分钟
◎导  演 雷德利·斯科特 Ridley Scott
◎编  剧 大卫·弗兰佐尼 David Franzoni
       约翰·洛根 John Logan
       威廉姆·尼克尔森 William Nicholson
◎演  员 罗素·克劳 Russell Crowe
       华金·菲尼克斯 Joaquin Phoenix
       康妮·尼尔森 Connie Nielsen
       奥列佛·里德 Oliver Reed
       理查德·哈里斯 Richard Harris
       德里克·雅各比 Derek Jacobi
       杰曼·翰苏 Djimon Hounsou
       大卫·斯科菲尔德 David Schofield
       约翰·斯拉普内尔 John Shrapnel
       托马斯·阿拉纳 Tomas Arana
       拉尔夫·莫勒 Ralf Moeller
       斯宾塞·崔特·克拉克 Spencer Treat Clark
       戴维·海明斯 David Hemmings
       汤米·弗拉纳根 Tommy Flanagan
       史文-欧尔·托尔森 Sven-Ole Thorsen
       欧米德·吉亚李利 Omid Djalili
       Chris Kell Chris Kell
       托尼·库兰 Tony Curran
       大卫·拜利 David Bailie
       艾尔·阿什顿 Al Ashton
       雷·卡雷贾 Ray Calleja
       詹妮娜·法西奥 Giannina Facio
       乔治·坎塔里尼 Giorgio Cantarini
       阿兰·柯德勒 Allan Corduner
       迈克尔·梅林杰 Michael Mellinger
       亚当·利维 Adam Levy
       吉力·吉尔克里斯特 Gilly Gilchrist
        Kjeld Gogosha-Clark
       尼克·梅因 Nic Main
       若昂·科斯塔·梅内塞斯 João Costa Menezes
       迈克·米切尔 Mike Mitchell
       诺曼·坎贝尔·里斯 Norman Campbell Rees
       布瑞恩·斯米吉 Brian Smyj
       童自荣 Zirong Tong
       乔榛 Zhen Qiao
       沈晓谦 Xiaoqian Shen
       史蒂文·斯皮尔伯格 Steven Spielberg
       雷德利·斯科特 Ridley Scott
       劳里·麦克唐纳 Laurie MacDonald
       道格拉斯·威克 Douglas Wick
       汉斯·季默 Hans Zimmer
       詹蒂·叶茨 Janty Yates
       马雷斯·朗根 Marese Langan
       伊凡娜·普里莫拉克 Ivana Primorac
       格拉汉姆·约翰斯通 Graham Johnston
       特雷福·普朗德 Trefor Proud
       Ana Bulajic-Crcek Ana Bulajic-Crcek
       乔·艾伦 Jo Allen
       蒂姆·伯克 Tim Burke
       Grahame Andrew Grahame Andrew
       罗布·哈维 Rob Harvey
       查里·亨利 Charley Henley
       Simon Hughes Simon Hughes
       Wesley Sewell Wesley Sewell
       安迪·坎德 Andy Kind
       David Lomax David Lomax
       米歇尔·莫恩 Michele Moen
       艾玛·诺顿 Emma Norton
       尼基·佩尼 Nikki Penny
       洛朗·乌格尼奥 Laurent Hugueniot
       本·莫里斯 Ben Morris
       Robin Aristorenas Robin Aristorenas
       Rob Allman Rob Allman
◎标  签 史诗 / 角斗士 / 罗马 / 战争 / 美国 / 行动 / 典范 / 历史
◎简  介
  马克西·蒙斯(罗素·克劳 饰)是罗马帝国战功显赫,受人拥戴的上将军。老国王马库斯·奥利利乌斯(理查德·哈里斯 饰)对上将军欣赏有加,成心加冕于他。老国王对将军这类超越亲情的溺爱自然招来太子康莫迪乌斯的吃醋与不安,太子伺机杀戮父亲,争先登上王位,并顿时命令诛杀上将军一家。                                    
                                马克西蒙斯死里逃生躲过暴君的魔爪,可是他一切的家人都未能幸免于难,返回故里,他只看到满目疮痍的破败气象。穷途末路的马克西蒙斯只能投身为奴,从昔日的上将军沦为一位角斗士,在血腥厮杀中轻易求生。                                    
                                凭仗勇敢的气势和高明的技艺,马克西蒙斯渐渐脱颖而出,升级到罗马的大角斗场。这一次,他的剑直指暴君康莫迪乌斯,落空亲人的疾苦,沦为仆从的屈辱,在马克西蒙斯的心里燃起了熊熊怒火。
  1. ##### MediaInfo ######
  2. General
  3. Unique ID                                : 112486546894730481082168803832906759784 (0x54A01EF35646084B5FA1C86BC3C9BE68)
  4. Complete name                            : Gladiator.2000.UHD.BluRay.2160p.DTS-X.MA.7.1.x265.10bit.HDR-ALT.mkv
  5. Format                                   : Matroska
  6. Format version                           : Version 4
  7. File size                                : 24.8 GiB
  8. Duration                                 : 2 h 50 min
  9. Overall bit rate mode                    : Variable
  10. Overall bit rate                         : 20.8 Mb/s
  11. Encoded date                             : UTC 2020-04-06 12:16:17
  12. Writing application                      : mkvmerge v45.0.0 ('Heaven in Pennies') 64-bit
  13. Writing library                          : libebml v1.3.10 + libmatroska v1.5.2
  14. Video
  15. ID                                       : 1
  16. Format                                   : HEVC
  17. Format/Info                              : High Efficiency Video Coding
  18. Format profile                           : Main [email protected][email protected]
  19. HDR format                               : SMPTE ST 2086, HDR10 compatible
  20. Codec ID                                 : V_MPEGH/ISO/HEVC
  21. Duration                                 : 2 h 50 min
  22. Bit rate                                 : 16.4 Mb/s
  23. Width                                    : 3 840 pixels
  24. Height                                   : 1 600 pixels
  25. Display aspect ratio                     : 2.40:1
  26. Frame rate mode                          : Constant
  27. Frame rate                               : 23.976 (24000/1001/53875) FPS
  28. Color space                              : YUV
  29. Chroma subsampling                       : 4:2:0 (Type 2)
  30. Bit depth                                : 10 bits
  31. Bits/(Pixel*Frame)                       : 0.112
  32. Stream size                              : 19.6 GiB (79%)
  33. Title                                    : HEVC, [email protected]@High, 24/1.001 fps @ 16438 kbps
  34. Writing library                          : x265 3.3+1-g396395b2b:[Windows][GCC 9.2.0][64 bit] 10bit
  35. Encoding settings                        : cpuid=538751111039 / frame-threads=4 / numa-pools=16 / wpp / pmode / pme / no-psnr / no-ssim / log-level=2 / input-csp=1 / input-res=3840x1600 / interlace=0 / total-frames=245910 / level-idc=51 / high-tier=1 / uhd-bd=0 / ref=4 / no-allow-non-conformance / repeat-headers / annexb / no-aud / hrd / info / hash=0 / no-temporal-layers / no-open-gop / min-keyint=24 / keyint=240 / gop-lookahead=0 / bframes=8 / b-adapt=2 / b-pyramid / bframe-bias=0 / rc-lookahead=25 / lookahead-slices=0 / NTM4NzU=uuDQuD2mJt9fsCf / scenecut=40 / hist-scenecut=0 / radl=0 / no-splice / no-intra-refresh / ctu=64 / min-cu-size=8 / no-rect / no-amp / max-tu-size=32 / tu-inter-depth=3 / tu-intra-depth=3 / limit-tu=4 / rdoq-level=2 / dynamic-rd=0.00 / no-ssim-rd / signhide / no-tskip / nr-intra=0 / nr-inter=0 / no-constrained-intra / no-strong-intra-smoothing / max-merge=4 / limit-refs=1 / limit-modes / me=3 / subme=4 / merange=25 / temporal-mvp / no-frame-dup / no-hme / weightp / weightb / no-analyze-src-pics / deblock=-3:-3 / no-sao / no-sao-non-deblock / rd=6 / selective-sao=0 / no-early-skip / rskip / no-fast-intra / no-tskip-fast / no-cu-lossless / b-intra / no-splitrd-skip / rdpenalty=0 / psy-rd=2.00 / psy-rdoq=1.00 / no-rd-refine / no-lossless / cbqpoffs=0 / crqpoffs=0 / rc=crf / crf=19.5 / qcomp=0.65 / qpstep=4 / stats-write=0 / stats-read=0 / vbv-maxrate=160000 / vbv-bufsize=160000 / vbv-init=0.9 / crf-max=0.0 / crf-min=0.0 / ipratio=1.30 / pbratio=1.20 / aq-mode=3 / aq-strength=0.85 / cutree / zone-count=0 / no-strict-cbr / qg-size=32 / no-rc-grain / qpmax=69 / qpmin=0 / no-const-vbv / sar=1 / overscan=0 / videoformat=5 / range=0 / colorprim=9 / transfer=16 / colormatrix=9 / chromaloc=1 / chromaloc-top=2 / chromaloc-bottom=2 / display-window=0 / master-display=G(13250,34500)B(7500,3000)R(34000,16000)WP(15635,16450)L(10000000,50) / cll=1000,497 / min-luma=0 / max-luma=1023 / log2-max-poc-lsb=8 / vui-timing-info / vui-hrd-info / slices=1 / no-opt-qp-pps / no-opt-ref-list-length-pps / no-multi-pass-opt-rps / scenecut-bias=0.05 / hist-threshold=0.01 / no-opt-cu-delta-qp / no-aq-motion / hdr10 / hdr10-opt / no-dhdr10-opt / no-idr-recovery-sei / analysis-reuse-level=0 / analysis-save-reuse-level=0 / analysis-load-reuse-level=0 / scale-factor=0 / refine-intra=0 / refine-inter=0 / refine-mv=1 / refine-ctu-distortion=0 / no-limit-sao / ctu-info=0 / no-lowpass-dct / refine-analysis-type=0 / copy-pic=1 / max-ausize-factor=1.0 / no-dynamic-refine / no-single-sei / no-hevc-aq / no-svt / no-field / qp-adaptation-range=1.00 / no-scenecut-aware-qpconformance-window-offsets / right=0 / bottom=0 / NTM4NzU=
  36. Language                                 : English
  37. Default                                  : Yes
  38. Forced                                   : No
  39. Color range                              : Limited
  40. Color primaries                          : BT.2020
  41. Transfer characteristics                 : PQ
  42. Matrix coefficients                      : BT.2020 non-constant
  43. Mastering display color primaries        : Display P3
  44. Mastering display luminance              : min: 0.0050 cd/m2, max: 1000 cd/m2
  45. Maximum Content Light Level              : 1000 cd/m2
  46. Maximum Frame-Average Light Level        : 497 cd/m2
  47. Audio #1
  48. ID                                       : 2
  49. Format                                   : DTS XLL X
  50. Format/Info                              : Digital Theater Systems
  51. Commercial name                          : DTS-HD Master Audio
  52. Codec ID                                 : A_DTS
  53. Duration                                 : 2 h 50 min
  54. Bit rate mode                            : Variable
  55. Bit rate                                 : 3 821 kb/s
  56. Channel(s)                               : 8 channels
  57. Channel(s)_Original                      : Object Based
  58. ChannelLayout_Original                   : Object Based
  59. Sampling rate                            : 48.0 kHz
  60. Frame rate                               : 93.750 FPS (512 SPF)
  61. Bit depth                                : 24 bits
  62. Stream size                              : 4.56 GiB (18%)
  63. Title                                    : English DTS:X Master Audio 7.1 @ 3821 kbps
  64. Language                                 : English
  65. Default                                  : Yes
  66. Forced                                   : No
  67. Audio #2
  68. ID                                       : 3
  69. Format                                   : AC-3
  70. Format/Info                              : Audio Coding 3
  71. Commercial name                          : Dolby Digital
  72. Codec ID                                 : A_AC3
  73. Duration                                 : 2 h 50 min
  74. Bit rate mode                            : Constant
  75. Bit rate                                 : 192 kb/s
  76. Channel(s)                               : 2 channels
  77. Channel layout                           : L R
  78. Sampling rate                            : 48.0 kHz
  79. Frame rate                               : 31.250 FPS (1536 SPF)
  80. Compression mode                         : Lossy
  81. Stream size                              : 235 MiB (1%)
  82. Title                                    : English Dolby Digital Audio 2.0 @ 192 kbps  Commentary 1
  83. Language                                 : English
  84. Service kind                             : Complete Main
  85. Default                                  : No
  86. Forced                                   : No
  87. Audio #3
  88. ID                                       : 4
  89. Format                                   : AC-3
  90. Format/Info                              : Audio Coding 3
  91. Commercial name                          : Dolby Digital
  92. Codec ID                                 : A_AC3
  93. Duration                                 : 2 h 50 min
  94. Bit rate mode                            : Constant
  95. Bit rate                                 : 192 kb/s
  96. Channel(s)                               : 2 channels
  97. Channel layout                           : L R
  98. Sampling rate                            : 48.0 kHz
  99. Frame rate                               : 31.250 FPS (1536 SPF)
  100. Compression mode                         : Lossy
  101. Stream size                              : 235 MiB (1%)
  102. Title                                    : English Dolby Digital Audio 2.0 @ 192 kbps  Commentary 2
  103. Language                                 : English
  104. Service kind                             : Complete Main
  105. Default                                  : No
  106. Forced                                   : No
  107. Text #1
  108. ID                                       : 5
  109. Format                                   : PGS
  110. Codec ID                                 : S_HDMV/PGS
  111. Codec ID/Info                            : Picture based subtitle format used on BDs/HD-DVDs
  112. Duration                                 : 2 h 42 min
  113. Bit rate                                 : 24.0 kb/s
  114. Count of elements                        : 2909
  115. Stream size                              : 27.8 MiB (0%)
  116. Title                                    : Eng/SUP
  117. Language                                 : English
  118. Default                                  : No
  119. Forced                                   : No
  120. Text #2
  121. ID                                       : 6
  122. Format                                   : PGS
  123. Codec ID                                 : S_HDMV/PGS
  124. Codec ID/Info                            : Picture based subtitle format used on BDs/HD-DVDs
  125. Duration                                 : 2 h 49 min
  126. Bit rate                                 : 18.5 kb/s
  127. Count of elements                        : 2691
  128. Stream size                              : 22.5 MiB (0%)
  129. Title                                    : Cht/SUP  原盘繁体
  130. Language                                 : Chinese
  131. Default                                  : Yes
  132. Forced                                   : No
  133. Text #3
  134. ID                                       : 7
  135. Format                                   : PGS
  136. Codec ID                                 : S_HDMV/PGS
  137. Codec ID/Info                            : Picture based subtitle format used on BDs/HD-DVDs
  138. Duration                                 : 2 h 44 min
  139. Bit rate                                 : 50.8 kb/s
  140. Count of elements                        : 3841
  141. Stream size                              : 59.6 MiB (0%)
  142. Title                                    : Eng/SUP  Commentary 1
  143. Language                                 : English
  144. Default                                  : No
  145. Forced                                   : No
  146. Text #4
  147. ID                                       : 8
  148. Format                                   : PGS
  149. Codec ID                                 : S_HDMV/PGS
  150. Codec ID/Info                            : Picture based subtitle format used on BDs/HD-DVDs
  151. Duration                                 : 2 h 46 min
  152. Bit rate                                 : 72.9 kb/s
  153. Count of elements                        : 5700
  154. Stream size                              : 87.0 MiB (0%)
  155. Title                                    : Eng/SUP  Commentary 2
  156. Language                                 : English
  157. Default                                  : No
  158. Forced                                   : No
  159. Menu
  160. 00:00:00.000                             : en:第 01 章
  161. 00:07:13.308                             : en:第 02 章
  162. 00:12:50.103                             : en:第 03 章
  163. 00:18:44.790                             : en:第 04 章
  164. 00:23:29.325                             : en:第 05 章
  165. 00:32:58.393                             : en:第 06 章
  166. 00:37:34.878                             : en:第 07 章
  167. 00:40:50.740                             : en:第 08 章
  168. 00:47:32.725                             : en:第 09 章
  169. 00:51:35.843                             : en:第 10 章
  170. 00:55:44.383                             : en:第 11 章
  171. 01:02:21.279                             : en:第 12 章
  172. 01:09:56.984                             : en:第 13 章
  173. 01:19:08.285                             : en:第 14 章
  174. 01:29:21.648                             : en:第 15 章
  175. 01:37:11.784                             : en:第 16 章
  176. 01:41:35.798                             : en:第 17 章
  177. 01:51:58.837                             : en:第 18 章
  178. 01:56:36.281                             : en:第 19 章
  179. 02:00:43.486                             : en:第 20 章
  180. 02:04:42.225                             : en:第 21 章
  181. 02:12:19.014                             : en:第 22 章
  182. 02:13:32.671                             : en:第 23 章
  183. 02:24:15.438                             : en:第 24 章
  184. 02:28:48.669                             : en:第 25 章
  185. 02:34:20.751                             : en:第 26 章
  186. 02:38:43.555                             : en:第 27 章
  187. 02:42:57.726                             : en:第 28 章
复制代码

















保举请利用qBittorrent,utorrent,transmission等标准BT软件下载!以获得最快速度。奉求保种!





回复

使用道具 举报

蓝光币
58
发表于 2022-7-27 14:39:56 | 显示全部楼层
感谢分享 楼主辛苦了
回复 支持 反对

使用道具 举报

蓝光币
516
发表于 2022-7-27 20:14:56 | 显示全部楼层

感谢分享 楼主辛苦了
回复 支持 反对

使用道具 举报

蓝光币
103
发表于 2022-7-27 21:26:09 | 显示全部楼层
回顾经典,感谢分享资源
回复 支持 反对

使用道具 举报

蓝光币
0
发表于 2022-7-28 00:06:37 | 显示全部楼层
感谢分享
回复

使用道具 举报

蓝光币
1904
发表于 2022-7-28 00:24:05 | 显示全部楼层
太好啦&萬分感謝版主的無私發佈分享%
回复 支持 反对

使用道具 举报

懒得打字嘛,点击右侧快捷回复 【右侧内容,后台自定义】
您需要登录后才可以回帖 登录 | 立即加入

本版积分规则

Archiver|小黑屋| 蓝光电影网 |网站地图

Copyright © 2021 Comsenz Inc. Powered by 蓝光电影网

蓝光电影网

本站内容由用户自主分享和转载自互联网,转载目的在于传递更多信息,并不代表本网赞同其观点和对其真实性负责。

如有侵权、违反国家法律政策行为,请联系我们,我们会第一时间及时清除和处理!

举报反馈邮箱:[email protected]

快速回复 返回顶部 返回列表