找回密码

蓝光电影网

查看: 58|回复: 0

[其他] 绿灯侠:畏吾神光 Green.Lantern.Beware.My.Power.2022.720p.BluRay.x264-PiGNUS 2.36GB

[复制链接]
蓝光币
886
发表于 2022-7-27 14:09:40 | 显示全部楼层 |阅读模式


◎译  名 绿灯侠:畏吾神光 / 绿灯侠:绿灯长明
◎片  名 Green Lantern: Beware My Power
◎年  代 2022
◎产  地 美国
◎类  别 动画
◎语  言 英语
◎上映日期 2022-07-26(美国)
◎IMDb链接 https://www.imdb.com/title/tt20192230/
◎豆瓣链接 https://movie.douban.com/subject/35633924/
◎片  长 88分钟
◎导  演 杰夫·瓦斯特 Jeff Wamester (id:1452454)
◎编  剧 厄尼·阿特巴克 Ernie Altbacker (id:1367847)
       John Semper John Semper (id:1297197)
◎演  员 阿尔迪斯·霍吉 Aldis Hodge (id:1098575)
       吉米·辛普森 Jimmi Simpson (id:1040576)
       诺兰·诺斯 Nolan North (id:1134542)
       杰米·格雷·海德 Jamie Gray Hyder (id:1364411)
       布莱恩·布鲁姆 Brian Bloom (id:1010538)
       凯沙·夏普 Keesha Sharp (id:1209100)
       艾克·阿玛迪 Ike Amadi (id:1443623)
       Sunil Malhotra Sunil Malhotra (id:1124949)
◎简  介

  During today’s DC Fandome event a number of animated films were announced for the summer of 2022. Among them is Green Lantern: Beware My Power. No details were disclosed about the plot, characters, or casting.
  1. Video
  2. ID                                       : 1
  3. Format                                   : AVC
  4. Format/Info                              : Advanced Video Codec
  5. Format profile                           : [email protected]
  6. Format settings                          : CABAC / 9 Ref Frames
  7. Format settings, CABAC                   : Yes
  8. Format settings, Reference frames        : 9 frames
  9. Codec ID                                 : V_MPEG4/ISO/AVC
  10. Duration                                 : 1 h 27 min
  11. Bit rate                                 : 3 176 kb/s
  12. Width                                    : 1 280 pixels
  13. Height                                   : 720 pixels
  14. Display aspect ratio                     : 16:9
  15. Frame rate mode                          : Constant
  16. Frame rate                               : 23.976 (24000/1001/189150) FPS
  17. Color space                              : YUV
  18. Chroma subsampling                       : 4:2:0
  19. Bit depth                                : 8 bits
  20. Scan type                                : Progressive
  21. Bits/(Pixel*Frame)                       : 0.144
  22. Stream size                              : 1.94 GiB (82%)
  23. Writing library                          : x264 core 164 r3095 baee400
  24. Encoding settings                        : cabac=1 / ref=9 / deblock=1:1:1 / analyse=0x3:0x133 / me=umh / subme=9 / psy=1 / psy_rd=0.40:0.00 / mixed_ref=1 / me_range=16 / chroma_me=1 / trellis=2 / 8x8dct=1 / cqm=0 / deadzone=21,11 / fast_pskip=1 / chroma_qp_offset=-2 / threads=22 / lookahead_threads=2 / sliced_threads=0 / nr=0 / decimate=1 / interlaced=0 / bluray_compat=0 / constrained_intra=0 / bframes=5 / b_pyramid=2 / b_adapt=2 / b_bias=0 / direct=3 / weightb=1 / open_gop=0 / weightp=2 / keyint=250 / keyint_min=23 / scenecut=40 / intra_refresh=0 / rc_lookahead=60 / rc=crf / mbtree=1 / crf=14.0 / qcomp=0.60 / qpmin=0 / qpmax=69 / qpstep=4 / ip_ratio=1.40 / aq=1:0.60
  25. Default                                  : Yes
  26. Forced                                   : No

  27. Audio
  28. ID                                       : 2
  29. Format                                   : AC-3
  30. Format/Info                              : Audio Coding 3
  31. Commercial name                          : Dolby Digital
  32. Codec ID                                 : A_AC3
  33. Duration                                 : 1 h 27 min
  34. Bit rate mode                            : Constant
  35. Bit rate                                 : 640 kb/s
  36. Channel(s)                               : 6 channels
  37. Channel layout                           : L R C LFE Ls Rs
  38. Sampling rate                            : 48.0 kHz
  39. Frame rate                               : 31.250 FPS (1536 SPF)
  40. Compression mode                         : Lossy
  41. Stream size                              : 401 MiB (17%)
  42. Language                                 : English
  43. Service kind                             : Complete Main
  44. Default                                  : Yes
  45. Forced                                   : No

  46. Text #1
  47. ID                                       : 3
  48. Format                                   : PGS
  49. Muxing mode                              : zlib
  50. Codec ID                                 : S_HDMV/PGS
  51. Codec ID/Info                            : Picture based subtitle format used on BDs/HD-DVDs
  52. Duration                                 : 1 h 24 min
  53. Bit rate                                 : 31.0 kb/s
  54. Count of elements                        : 1914
  55. Stream size                              : 18.8 MiB (1%)
  56. Title                                    : English SDH
  57. Language                                 : English
  58. Default                                  : No
  59. Forced                                   : No

  60. Text #2
  61. ID                                       : 4
  62. Format                                   : PGS
  63. Muxing mode                              : zlib
  64. Codec ID                                 : S_HDMV/PGS
  65. Codec ID/Info                            : Picture based subtitle format used on BDs/HD-DVDs
  66. Duration                                 : 1 h 26 min
  67. Bit rate                                 : 32.7 kb/s
  68. Count of elements                        : 1674
  69. Stream size                              : 20.2 MiB (1%)
  70. Title                                    : French
  71. Language                                 : French
  72. Default                                  : No
  73. Forced                                   : No

  74. Text #3
  75. ID                                       : 5
  76. Format                                   : PGS
  77. Muxing mode                              : zlib
  78. Codec ID                                 : S_HDMV/PGS
  79. Codec ID/Info                            : Picture based subtitle format used on BDs/HD-DVDs
  80. Duration                                 : 1 h 24 min
  81. Bit rate                                 : 36.7 kb/s
  82. Count of elements                        : 1914
  83. Stream size                              : 22.3 MiB (1%)
  84. Title                                    : German
  85. Language                                 : German
  86. Default                                  : No
  87. Forced                                   : No

  88. Text #4
  89. ID                                       : 6
  90. Format                                   : PGS
  91. Muxing mode                              : zlib
  92. Codec ID                                 : S_HDMV/PGS
  93. Codec ID/Info                            : Picture based subtitle format used on BDs/HD-DVDs
  94. Duration                                 : 1 h 24 min
  95. Bit rate                                 : 28.4 kb/s
  96. Count of elements                        : 1666
  97. Stream size                              : 17.1 MiB (1%)
  98. Title                                    : Spanish
  99. Language                                 : Spanish
  100. Default                                  : No
  101. Forced                                   : No

  102. Menu
  103. 00:00:00.000                             : en:Chapter 01
  104. 00:05:03.303                             : en:Chapter 02
  105. 00:14:52.892                             : en:Chapter 03
  106. 00:23:46.133                             : en:Chapter 04
  107. 00:29:35.357                             : en:Chapter 05
  108. 00:35:36.801                             : en:Chapter 06
  109. 00:45:13.377                             : en:Chapter 07
  110. 00:55:12.809                             : en:Chapter 08
  111. 01:04:57.268                             : en:Chapter 09
  112. 01:11:03.718                             : en:Chapter 10
  113. 01:18:26.619                             : en:Chapter 11
  114. 01:24:52.587                             : en:Chapter 12
  115. 01:27:30.328                             : en:Chapter 13
复制代码




                                       
                                       

                                       
                                       
                                       




回复

使用道具 举报

懒得打字嘛,点击右侧快捷回复 【右侧内容,后台自定义】
您需要登录后才可以回帖 登录 | 立即加入

本版积分规则

Archiver|小黑屋| 蓝光电影网 |网站地图

Copyright © 2021 Comsenz Inc. Powered by 蓝光电影网

蓝光电影网

本站内容由用户自主分享和转载自互联网,转载目的在于传递更多信息,并不代表本网赞同其观点和对其真实性负责。

如有侵权、违反国家法律政策行为,请联系我们,我们会第一时间及时清除和处理!

举报反馈邮箱:[email protected]

快速回复 返回顶部 返回列表