找回密码

蓝光电影网

查看: 37|回复: 0

[剧情] 圣灵 The.Sacred.Spirit.2021.720p.BluRay.x264-ORBS 3.68GB

[复制链接]
蓝光币
886
发表于 2022-7-27 14:14:49 | 显示全部楼层 |阅读模式


◎译  名 圣灵 / 圣灵请回答(台) / The Sacred Spirit / Esprit sacré
◎片  名 Espiritu sagrado
◎年  代 2021
◎产  地 西班牙 / 法国 / 土耳其
◎类  别 剧情 / 笑剧 / 科幻 / 惊悚
◎语  言 西班牙语
◎上映日期 2021-08-09(洛迦诺电影节)
◎IMDb链接 https://www.imdb.com/title/tt13841874/
◎豆瓣链接 https://movie.douban.com/subject/35231884/
◎片  长 97分钟
◎导  演 切玛·加西亚·伊瓦拉 Chema García Ibarra (id:1333442)
◎编  剧 切玛·加西亚·伊瓦拉 Chema García Ibarra (id:1333442)
◎简  介

  El film se encuadra dentro del género fantástico. ?Cuál es su argumento? Mientras media Espa?a busca a una ni?a desaparecida, la asociación de aficionados a la ufología Ovni-Levante prepara su noche de avistamientos. Uno de sus miembros, José Manuel, guarda un secreto: el destino de la humanidad depende de él.
◎获奖情况 (共2项)
  第74届洛迦诺国际电影节 (2021)
  金豹奖(提名)
   └──切玛·加西亚·伊瓦拉 (id:1333442)
  出格说起奖
   └──切玛·加西亚·伊瓦拉 (id:1333442)
  1. Video
  2. ID                                       : 1
  3. Format                                   : AVC
  4. Format/Info                              : Advanced Video Codec
  5. Format profile                           : [email protected]
  6. Format settings                          : CABAC / 10 Ref Frames
  7. Format settings, CABAC                   : Yes
  8. Format settings, Reference frames        : 10 frames
  9. Codec ID                                 : V_MPEG4/ISO/AVC
  10. Duration                                 : 1 h 37 min
  11. Bit rate                                 : 4 752 kb/s
  12. Width                                    : 1 144 pixels
  13. Height                                   : 720 pixels
  14. Display aspect ratio                     : 16:10
  15. Frame rate mode                          : Constant
  16. Frame rate                               : 23.976 (24000/1001/189150) FPS
  17. Color space                              : YUV
  18. Chroma subsampling                       : 4:2:0
  19. Bit depth                                : 8 bits
  20. Scan type                                : Progressive
  21. Bits/(Pixel*Frame)                       : 0.241
  22. Stream size                              : 3.24 GiB (88%)
  23. Writing library                          : x264 core 164 r3095 baee400
  24. Encoding settings                        : cabac=1 / ref=10 / deblock=1:-3:-3 / analyse=0x3:0x133 / me=umh / subme=10 / psy=1 / psy_rd=1.20:0.00 / mixed_ref=1 / me_range=24 / chroma_me=1 / trellis=2 / 8x8dct=1 / cqm=0 / deadzone=21,11 / fast_pskip=0 / chroma_qp_offset=-2 / threads=22 / lookahead_threads=3 / sliced_threads=0 / nr=0 / decimate=0 / interlaced=0 / bluray_compat=0 / constrained_intra=0 / bframes=8 / b_pyramid=2 / b_adapt=2 / b_bias=0 / direct=3 / weightb=1 / open_gop=0 / weightp=2 / keyint=250 / keyint_min=23 / scenecut=40 / intra_refresh=0 / rc_lookahead=60 / rc=crf / mbtree=1 / crf=20.0 / qcomp=0.60 / qpmin=0 / qpmax=69 / qpstep=4 / ip_ratio=1.40 / aq=3:0.90
  25. Default                                  : Yes
  26. Forced                                   : No
  27. Color range                              : Limited
  28. Matrix coefficients                      : BT.709

  29. Audio
  30. ID                                       : 2
  31. Format                                   : AC-3
  32. Format/Info                              : Audio Coding 3
  33. Commercial name                          : Dolby Digital
  34. Codec ID                                 : A_AC3
  35. Duration                                 : 1 h 37 min
  36. Bit rate mode                            : Constant
  37. Bit rate                                 : 640 kb/s
  38. Channel(s)                               : 6 channels
  39. Channel layout                           : L R C LFE Ls Rs
  40. Sampling rate                            : 48.0 kHz
  41. Frame rate                               : 31.250 FPS (1536 SPF)
  42. Compression mode                         : Lossy
  43. Stream size                              : 446 MiB (12%)
  44. Language                                 : Spanish
  45. Service kind                             : Complete Main
  46. Default                                  : Yes
  47. Forced                                   : No

  48. Text #1
  49. ID                                       : 3
  50. Format                                   : UTF-8
  51. Codec ID                                 : S_TEXT/UTF8
  52. Codec ID/Info                            : UTF-8 Plain Text
  53. Duration                                 : 1 h 36 min
  54. Bit rate                                 : 51 b/s
  55. Count of elements                        : 939
  56. Stream size                              : 36.6 KiB (0%)
  57. Title                                    : English (Forced)
  58. Language                                 : English
  59. Default                                  : Yes
  60. Forced                                   : Yes

  61. Text #2
  62. ID                                       : 4
  63. Format                                   : PGS
  64. Muxing mode                              : zlib
  65. Codec ID                                 : S_HDMV/PGS
  66. Codec ID/Info                            : Picture based subtitle format used on BDs/HD-DVDs
  67. Duration                                 : 1 h 36 min
  68. Bit rate                                 : 28.0 kb/s
  69. Count of elements                        : 1878
  70. Stream size                              : 19.3 MiB (1%)
  71. Language                                 : English
  72. Default                                  : No
  73. Forced                                   : No

  74. Menu
  75. 00:00:00.000                             : Chapter 01
  76. 00:07:46.424                             : Chapter 02
  77. 00:15:22.296                             : Chapter 03
  78. 00:23:38.208                             : Chapter 04
  79. 00:31:12.245                             : Chapter 05
  80. 00:37:54.147                             : Chapter 06
  81. 00:46:55.771                             : Chapter 07
  82. 00:52:44.370                             : Chapter 08
  83. 01:02:06.056                             : Chapter 09
  84. 01:10:28.474                             : Chapter 10
  85. 01:18:28.704                             : Chapter 11
  86. 01:27:24.656                             : Chapter 12
  87. 01:37:29.552                             : Chapter 13
复制代码





                                       
                                       

                                       
                                       
                                       




回复

使用道具 举报

懒得打字嘛,点击右侧快捷回复 【右侧内容,后台自定义】
您需要登录后才可以回帖 登录 | 立即加入

本版积分规则

Archiver|小黑屋| 蓝光电影网 |网站地图

Copyright © 2021 Comsenz Inc. Powered by 蓝光电影网

蓝光电影网

本站内容由用户自主分享和转载自互联网,转载目的在于传递更多信息,并不代表本网赞同其观点和对其真实性负责。

如有侵权、违反国家法律政策行为,请联系我们,我们会第一时间及时清除和处理!

举报反馈邮箱:[email protected]

快速回复 返回顶部 返回列表