找回密码

蓝光电影网

查看: 108|回复: 2

[剧情] 孽海枭雄 Knock.on.Any.Door.1949.1080p.BluRay.x264-ORBS 8.97GB

[复制链接]
蓝光币
1022
发表于 2022-7-27 14:18:02 | 显示全部楼层 |阅读模式


◎译  名 孽海枭雄 / 铁汉情花
◎片  名 Knock on Any Door
◎年  代 1949
◎产  地 美国
◎类  别 剧情 / 犯罪 / 黑色电影
◎语  言 英语 / 意大利语
◎上映日期 1949-02-22(美国)
◎IMDb链接 https://www.imdb.com/title/tt0041555/
◎豆瓣链接 https://movie.douban.com/subject/1293208/
◎片  长 100分钟
◎导  演 尼古拉斯·雷 Nicholas Ray (id:1022811)
◎编  剧 丹尼尔·塔拉达什 Daniel Taradash (id:1156191)
       小约翰·蒙克斯 John Monks Jr. (id:1034073)
       Willard Motley Willard Motley (id:1011651)
◎演  员 亨弗莱·鲍嘉 Humphrey Bogart (id:1047982)
       约翰·德里克 John Derek (id:1022724)
       乔治·麦克雷迪 George Macready (id:1122312)
       艾琳·罗伯茨 Allene Roberts (id:1140390)
       Candy Toxton Candy Toxton (id:1155256)
       米基·诺克斯 Mickey Knox (id:1016863)
       巴里·凯利 Barry Kelley (id:1113991)
       弗洛伦丝·奥尔 Florence Auer (id:1033075)
       文斯·巴尼特 Vince Barnett (id:1012681)
       Richard Bartell Richard Bartell (id:1062120)
       Paul Baxley Paul Baxley (id:1028603)
       埃迪·博登 Eddie Borden (id:1062632)
       Hazel Boyne Hazel Boyne (id:1067086)
       阿亨蒂娜·布鲁内蒂 Argentina Brunetti (id:1074586)
       乔治·钱德勒 George Chandler (id:1078000)
       Chuck Colean Chuck Colean (id:1073242)
       詹姆斯·科纳蒂 James Conaty (id:1069596)
       切斯特·康克林 Chester Conklin (id:1054248)
       Jimmy Conlin Jimmy Conlin (id:1078781)
       Connie Conrad Connie Conrad (id:1071596)
       柯特·康韦 Curt Conway (id:1074330)
       卡萝尔·库姆斯 Carol Coombs (id:1072513)
       安妮·康尼瓦尔 Anne Cornwall (id:1069379)
       Homer Dickenson Homer Dickenson (id:1086442)
       Dudley Dickerson Dudley Dickerson (id:1090845)
       乔·多尔蒂 Joe Dougherty (id:1079570)
       Mary Emery Mary Emery (id:1090778)
       富兰克林·法纳姆 Franklyn Farnum (id:1083292)
       Al Ferguson Al Ferguson (id:1085560)
       萨姆·弗林特 Sam Flint (id:1089152)
       Jody Gilbert Jody Gilbert (id:1093627)
       Sol Gorss Sol Gorss (id:1098266)
       William Haade William Haade (id:1091900)
       弗兰克·哈格尼 Frank Hagney (id:1091047)
       Betty Hall Betty Hall (id:1098240)
       Joy Hallward Joy Hallward (id:1097984)
       罗伯塔·海恩斯 Roberta Haynes (id:1095997)
       迈伦·希里 Myron Healey (id:1054261)
       George Hickman George Hickman (id:1093444)
       艾尔·希尔 Al Hill (id:1097612)
       Wesley Hopper Wesley Hopper (id:1093529)
       约翰·因德里萨诺 John Indrisano (id:1104545)
       Jack Jahries Jack Jahries (id:1104491)
       Ray Johnson Ray Johnson (id:1104689)
       Donald Kerr Donald Kerr (id:1111908)
       Paul Kreibich Paul Kreibich (id:1103637)
       杜威·马丁 Dewey Martin (id:1122747)
       希德·梅尔顿 Sid Melton (id:1118431)
       Eda Reiss Merin Eda Reiss Merin (id:1124641)
       约翰·米彻姆 John Mitchum (id:1125519)
       Philip Morris Philip Morris (id:1008167)
       Helen Mowery Helen Mowery (id:1134000)
       Garry Owen Garry Owen (id:1128208)
       Netta Packer Netta Packer (id:1127009)
       乔·帕尔马 Joe Palma (id:1130157)
       Eddie Parker Eddie Parker (id:1134255)
       比拉·帕金顿 Beulah Parkington (id:1129092)
       杰克佩里 Jack Perry (id:1133454)
       李·费尔普斯 Lee Phelps (id:1131802)
       Rose Plumer Rose Plumer (id:1127620)
       Ed Randolph Ed Randolph (id:1143129)
       Davis Roberts Davis Roberts (id:1083073)
       Franz Roehn Franz Roehn (id:1146311)
       Mabel Smaney Mabel Smaney (id:1154345)
       豪泽利·史蒂文森 Houseley Stevenson (id:1158676)
       Brick Sullivan Brick Sullivan (id:1154633)
       查尔斯·沙利文 Charles Sullivan (id:1151727)
       Sid Tomack Sid Tomack (id:1150362)
       Dorothy Vernon Dorothy Vernon (id:1157139)
       Peter Virgo Peter Virgo (id:1155925)
       Ralph Volkie Ralph Volkie (id:1167159)
       皮埃尔·沃特金斯 Pierre Watkin (id:1163105)
       Blackie Whiteford Blackie Whiteford (id:1166765)
       卡拉·威廉姆斯 Cara Williams (id:1161351)
       杜利·威尔逊 Dooley Wilson (id:1168108)
       哈里·威尔逊 Harry Wilson (id:1163554)
       杰夫约克 Jeff York (id:1168528)
       罗伯特·彼得森 Robert Peterson (id:1294376)
◎简  介

  An attorney defends a hoodlum of murder, using the oppressiveness of the slums to appeal to the court.
  1. Video
  2. ID                                       : 1
  3. Format                                   : AVC
  4. Format/Info                              : Advanced Video Codec
  5. Format profile                           : [email protected]
  6. Format settings                          : CABAC / 5 Ref Frames
  7. Format settings, CABAC                   : Yes
  8. Format settings, Reference frames        : 5 frames
  9. Codec ID                                 : V_MPEG4/ISO/AVC
  10. Duration                                 : 1 h 39 min
  11. Bit rate                                 : 12.1 Mb/s
  12. Width                                    : 1 440 pixels
  13. Height                                   : 1 080 pixels
  14. Display aspect ratio                     : 4:3
  15. Frame rate mode                          : Constant
  16. Frame rate                               : 23.976 (24000/1001/189150) FPS
  17. Color space                              : YUV
  18. Chroma subsampling                       : 4:2:0
  19. Bit depth                                : 8 bits
  20. Scan type                                : Progressive
  21. Bits/(Pixel*Frame)                       : 0.324
  22. Stream size                              : 8.44 GiB (94%)
  23. Writing library                          : x264 core 164 r3095 baee400
  24. Encoding settings                        : cabac=1 / ref=5 / deblock=1:-3:-3 / analyse=0x3:0x133 / me=umh / subme=10 / psy=1 / psy_rd=1.20:0.00 / mixed_ref=1 / me_range=24 / chroma_me=1 / trellis=2 / 8x8dct=1 / cqm=0 / deadzone=21,11 / fast_pskip=0 / chroma_qp_offset=-2 / threads=24 / lookahead_threads=4 / sliced_threads=0 / nr=0 / decimate=0 / interlaced=0 / bluray_compat=0 / constrained_intra=0 / bframes=8 / b_pyramid=2 / b_adapt=2 / b_bias=0 / direct=3 / weightb=1 / open_gop=0 / weightp=2 / keyint=250 / keyint_min=23 / scenecut=40 / intra_refresh=0 / rc_lookahead=60 / rc=crf / mbtree=1 / crf=22.5 / qcomp=0.60 / qpmin=0 / qpmax=69 / qpstep=4 / ip_ratio=1.40 / aq=3:0.90
  25. Default                                  : Yes
  26. Forced                                   : No
  27. Color range                              : Limited
  28. Matrix coefficients                      : BT.709

  29. Audio #1
  30. ID                                       : 2
  31. Format                                   : FLAC
  32. Format/Info                              : Free Lossless Audio Codec
  33. Codec ID                                 : A_FLAC
  34. Duration                                 : 1 h 39 min
  35. Bit rate mode                            : Variable
  36. Bit rate                                 : 637 kb/s
  37. Channel(s)                               : 1 channel
  38. Channel layout                           : C
  39. Sampling rate                            : 48.0 kHz
  40. Frame rate                               : 11.719 FPS (4096 SPF)
  41. Bit depth                                : 24 bits
  42. Compression mode                         : Lossless
  43. Stream size                              : 455 MiB (5%)
  44. Writing library                          : libFLAC 1.3.3 (UTC 2019-08-04)
  45. Language                                 : English
  46. Default                                  : Yes
  47. Forced                                   : No

  48. Audio #2
  49. ID                                       : 3
  50. Format                                   : AAC LC
  51. Format/Info                              : Advanced Audio Codec Low Complexity
  52. Codec ID                                 : A_AAC-2
  53. Duration                                 : 1 h 39 min
  54. Bit rate                                 : 104 kb/s
  55. Channel(s)                               : 2 channels
  56. Channel layout                           : L R
  57. Sampling rate                            : 48.0 kHz
  58. Frame rate                               : 46.875 FPS (1024 SPF)
  59. Compression mode                         : Lossy
  60. Delay relative to video                  : 20 ms
  61. Stream size                              : 74.5 MiB (1%)
  62. Title                                    : Commentary
  63. Language                                 : English
  64. Default                                  : No
  65. Forced                                   : No

  66. Text
  67. ID                                       : 4
  68. Format                                   : PGS
  69. Muxing mode                              : zlib
  70. Codec ID                                 : S_HDMV/PGS
  71. Codec ID/Info                            : Picture based subtitle format used on BDs/HD-DVDs
  72. Duration                                 : 1 h 39 min
  73. Bit rate                                 : 50.7 kb/s
  74. Count of elements                        : 3644
  75. Stream size                              : 36.1 MiB (0%)
  76. Title                                    : SDH
  77. Language                                 : English
  78. Default                                  : No
  79. Forced                                   : No

  80. Menu
  81. 00:00:00.000                             : Chapter 01
  82. 00:07:33.036                             : Chapter 02
  83. 00:16:00.168                             : Chapter 03
  84. 00:22:03.322                             : Chapter 04
  85. 00:31:35.227                             : Chapter 05
  86. 00:41:19.185                             : Chapter 06
  87. 00:50:14.261                             : Chapter 07
  88. 00:57:35.035                             : Chapter 08
  89. 01:05:44.065                             : Chapter 09
  90. 01:14:03.564                             : Chapter 10
  91. 01:23:35.677                             : Chapter 11
  92. 01:31:49.045                             : Chapter 12
  93. 01:39:52.528                             : Chapter 13
复制代码





                                       
                                       

                                       
                                       
                                       




回复

使用道具 举报

蓝光币
30
发表于 2022-7-27 21:26:04 | 显示全部楼层
谢谢楼主分享!
回复 支持 反对

使用道具 举报

蓝光币
2
发表于 2022-7-27 21:56:02 | 显示全部楼层

谢谢楼主分享!
回复 支持 反对

使用道具 举报

懒得打字嘛,点击右侧快捷回复 【右侧内容,后台自定义】
您需要登录后才可以回帖 登录 | 立即加入

本版积分规则

Archiver|小黑屋| 蓝光电影网 |网站地图

Copyright © 2021 Comsenz Inc. Powered by 蓝光电影网

蓝光电影网

本站内容由用户自主分享和转载自互联网,转载目的在于传递更多信息,并不代表本网赞同其观点和对其真实性负责。

如有侵权、违反国家法律政策行为,请联系我们,我们会第一时间及时清除和处理!

举报反馈邮箱:[email protected]

快速回复 返回顶部 返回列表