找回密码

蓝光电影网

查看: 44|回复: 0

[喜剧] 冰淇淋人 The.Ice.Cream.Man.1995.SUMMER.SCHOOL.MONSTERVISION.EDITION.720p.BluRay.x264-YAMG 5.49GB

[复制链接]
蓝光币
953
发表于 2022-7-27 22:50:34 | 显示全部楼层 |阅读模式


◎标  题 冰淇淋人
◎译  名 血腥冰淇淋
◎片  名 Ice Cream Man
◎年  代 1995
◎产  地 美国
◎类  别 笑剧 / 可骇
◎语  言 英语
◎上映日期 1995-05-09(美国录像带刊行)
◎IMDb评分 4.8/10 (3629人评价)
◎IMDb链接 https://www.imdb.com/title/tt0113376/
◎豆瓣评分 5.7/10 (91人评价)
◎豆瓣链接 https://movie.douban.com/subject/2382470/
◎片  长 84 分钟
◎编  剧 大卫·道金 David Dobkin
◎演  员 奥丽维娅·赫西 Olivia Hussey
       托丽·韦尔斯 Tori Welles
       Anndi McAfee Anndi McAfee
       Mikey LeBeau Mikey LeBeau
       安德烈娅·埃文斯 Andrea Evans
       E·E·贝尔 E.E. Bell
       Steve Garvey Steve Garvey
       桑达·伯格曼 Sandahl Bergman
       卡尔·马金恩 Karl Makinen
       大卫·沃纳 David Warner
       Tom Reilly Tom Reilly
       冉-迈克尔·文森特 Jan-Michael Vincent
       大卫·诺顿 David Naughton
       克林特·霍华德 Clint Howard
       Matthew McCurley Matthew McCurley
◎标  签 可骇 / Cult / 美国 / 笑剧 / 惊悚 / B级片 / 小孩 / 1995
◎简  介

    这是一部典型的90年月荒诞笑剧气概的可骇电影。本片报告了一个叫做格雷戈里的汉子从许愿井疗养院被开释后,他希望可以让小孩子们兴奋,是以他重新翻开了陈旧的冰淇淋工场的大门,但是,总有一些小孩子不领情,所以格雷戈里就把这些小孩都做成了“怪异的”冰淇淋.....
  1. Video
  2. ID                                       : 1
  3. Format                                   : AVC
  4. Format/Info                              : Advanced Video Codec
  5. Format profile                           : [email protected]
  6. Format settings                          : CABAC / 9 Ref Frames
  7. Format settings, CABAC                   : Yes
  8. Format settings, Reference frames        : 9 frames
  9. Codec ID                                 : V_MPEG4/ISO/AVC
  10. Duration                                 : 1 h 59 min
  11. Bit rate                                 : 6 239 kb/s
  12. Width                                    : 1 280 pixels
  13. Height                                   : 720 pixels
  14. Display aspect ratio                     : 16:9
  15. Frame rate mode                          : Constant
  16. Frame rate                               : 23.976 (24000/1001/189150) FPS
  17. Color space                              : YUV
  18. Chroma subsampling                       : 4:2:0
  19. Bit depth                                : 8 bits
  20. Scan type                                : Progressive
  21. Bits/(Pixel*Frame)                       : 0.282
  22. Stream size                              : 5.23 GiB (95%)
  23. Writing library                          : x264 core 164 r3065 ae03d92
  24. Encoding settings                        : cabac=1 / ref=9 / deblock=1:-3:-3 / analyse=0x3:0x133 / me=umh / subme=10 / psy=1 / psy_rd=1.00:0.00 / mixed_ref=1 / me_range=32 / chroma_me=1 / trellis=2 / 8x8dct=1 / cqm=0 / deadzone=21,11 / fast_pskip=0 / chroma_qp_offset=-2 / threads=22 / lookahead_threads=3 / sliced_threads=0 / nr=0 / decimate=0 / interlaced=0 / bluray_compat=0 / constrained_intra=0 / bframes=8 / b_pyramid=2 / b_adapt=2 / b_bias=0 / direct=3 / weightb=1 / open_gop=0 / weightp=2 / keyint=250 / keyint_min=23 / scenecut=40 / intra_refresh=0 / rc=crf / mbtree=0 / crf=17.0 / qcomp=0.60 / qpmin=0 / qpmax=69 / qpstep=4 / ip_ratio=1.40 / pb_ratio=1.30 / aq=3:0.60
  25. Language                                 : English
  26. Default                                  : Yes
  27. Forced                                   : No
  28. Color range                              : Limited
  29. Matrix coefficients                      : BT.709

  30. Audio
  31. ID                                       : 2
  32. Format                                   : AC-3
  33. Format/Info                              : Audio Coding 3
  34. Commercial name                          : Dolby Digital
  35. Codec ID                                 : A_AC3
  36. Duration                                 : 1 h 59 min
  37. Bit rate mode                            : Constant
  38. Bit rate                                 : 320 kb/s
  39. Channel(s)                               : 2 channels
  40. Channel layout                           : L R
  41. Sampling rate                            : 48.0 kHz
  42. Frame rate                               : 31.250 FPS (1536 SPF)
  43. Compression mode                         : Lossy
  44. Stream size                              : 274 MiB (5%)
  45. Title                                    : English
  46. Language                                 : English
  47. Service kind                             : Complete Main
  48. Default                                  : Yes
  49. Forced                                   : No

  50. Text #1
  51. ID                                       : 3
  52. Format                                   : UTF-8
  53. Codec ID                                 : S_TEXT/UTF8
  54. Codec ID/Info                            : UTF-8 Plain Text
  55. Duration                                 : 1 h 46 min
  56. Bit rate                                 : 34 b/s
  57. Count of elements                        : 826
  58. Stream size                              : 26.5 KiB (0%)
  59. Title                                    : English
  60. Language                                 : English
  61. Default                                  : No
  62. Forced                                   : No

  63. Text #2
  64. ID                                       : 4
  65. Format                                   : UTF-8
  66. Codec ID                                 : S_TEXT/UTF8
  67. Codec ID/Info                            : UTF-8 Plain Text
  68. Duration                                 : 1 h 48 min
  69. Bit rate                                 : 36 b/s
  70. Count of elements                        : 907
  71. Stream size                              : 28.7 KiB (0%)
  72. Title                                    : English SDH
  73. Language                                 : English
  74. Default                                  : No
  75. Forced                                   : No

  76. Menu
  77. 00:00:00.000                             : Chapter 01
  78. 00:07:40.460                             : Chapter 02
  79. 00:22:26.845                             : Chapter 03
  80. 00:27:38.657                             : Chapter 04
  81. 00:40:41.439                             : Chapter 05
  82. 00:45:21.719                             : Chapter 06
  83. 00:59:47.584                             : Chapter 07
  84. 01:05:08.905                             : Chapter 08
  85. 01:17:38.154                             : Chapter 09
  86. 01:21:50.906                             : Chapter 10
  87. 01:37:06.321                             : Chapter 11
  88. 01:40:18.012                             : Chapter 12
  89. 01:56:31.985                             : Chapter 13
复制代码





                                       
                                       

                                       
                                       
                                       




回复

使用道具 举报

懒得打字嘛,点击右侧快捷回复 【右侧内容,后台自定义】
您需要登录后才可以回帖 登录 | 立即加入

本版积分规则

Archiver|小黑屋| 蓝光电影网 |网站地图

Copyright © 2021 Comsenz Inc. Powered by 蓝光电影网

蓝光电影网

本站内容由用户自主分享和转载自互联网,转载目的在于传递更多信息,并不代表本网赞同其观点和对其真实性负责。

如有侵权、违反国家法律政策行为,请联系我们,我们会第一时间及时清除和处理!

举报反馈邮箱:[email protected]

快速回复 返回顶部 返回列表