找回密码

蓝光电影网

查看: 104|回复: 0

[剧情] 正发生 Happening.2021.1080p.BluRay.x264-ORBS 10.59GB

[复制链接]
蓝光币
1022
发表于 2022-7-27 22:54:32 | 显示全部楼层 |阅读模式


◎标  题 正发生
◎译  名 Happening
◎片  名 L'Événement
◎年  代 2021
◎产  地 法国
◎类  别 剧情
◎语  言 法语
◎上映日期 2021-09-06(威尼斯电影节) / 2021-11-24(法国)
◎IMDb评分 7.4/10 (2696人评价)
◎IMDb链接 https://www.imdb.com/title/tt13880104/
◎豆瓣评分 7.8/10 (7333人评价)
◎豆瓣链接 https://movie.douban.com/subject/35318021/
◎片  长 100分钟
◎导  演 奥黛丽·迪万 Audrey Diwan
◎编  剧 奥黛丽·迪万 Audrey Diwan
       玛西娅·罗马诺 Marcia Romano
◎演  员 安娜玛丽亚·沃特鲁梅 Anamaria Vartolomei
       卡西·莫泰·克莱恩 Kacey Mottet Klein
       卢安娜·巴杰拉米 Luàna Bajrami
       露易丝·奥利-狄奎罗 Louise Orry-Diquéro
       路易丝·舍维约特 Louise Chevillotte
       皮奥·马麦 Pio Marmaï
       桑德里娜·博内尔 Sandrine Bonnaire
       安娜·穆格拉利斯 Anna Mouglalis
       阿丽斯·德·朗克桑 Alice de Lencquesaing
       法布里齐奥·隆吉奥内 Fabrizio Rongione
       塞德里克·梅斯伯格 Cédric Meusburger
       Julien Frison Julien Frison
        Leonor Oberson
        Alice Girard
◎简  介

  改编自法国作家安妮·艾诺的自传作品,原著报告1960年月还是门生的安妮,因堕胎所激发的心理和心理两重创伤。
  1. Video
  2. ID                                       : 1
  3. Format                                   : AVC
  4. Format/Info                              : Advanced Video Codec
  5. Format profile                           : [email protected]
  6. Format settings                          : CABAC / 5 Ref Frames
  7. Format settings, CABAC                   : Yes
  8. Format settings, Reference frames        : 5 frames
  9. Codec ID                                 : V_MPEG4/ISO/AVC
  10. Duration                                 : 1 h 39 min
  11. Bit rate                                 : 11.9 Mb/s
  12. Width                                    : 1 474 pixels
  13. Height                                   : 1 080 pixels
  14. Display aspect ratio                     : 4:3
  15. Frame rate mode                          : Constant
  16. Frame rate                               : 24.000 FPS
  17. Color space                              : YUV
  18. Chroma subsampling                       : 4:2:0
  19. Bit depth                                : 8 bits
  20. Scan type                                : Progressive
  21. Bits/(Pixel*Frame)                       : 0.312
  22. Stream size                              : 8.30 GiB (78%)
  23. Writing library                          : x264 core 164 r3095 baee400
  24. Encoding settings                        : cabac=1 / ref=5 / deblock=1:-3:-3 / analyse=0x3:0x133 / me=umh / subme=10 / psy=1 / psy_rd=1.20:0.00 / mixed_ref=1 / me_range=24 / chroma_me=1 / trellis=2 / 8x8dct=1 / cqm=0 / deadzone=21,11 / fast_pskip=0 / chroma_qp_offset=-2 / threads=24 / lookahead_threads=4 / sliced_threads=0 / nr=0 / decimate=0 / interlaced=0 / bluray_compat=0 / constrained_intra=0 / bframes=8 / b_pyramid=2 / b_adapt=2 / b_bias=0 / direct=3 / weightb=1 / open_gop=0 / weightp=2 / keyint=250 / keyint_min=24 / scenecut=40 / intra_refresh=0 / rc_lookahead=60 / rc=crf / mbtree=1 / crf=17.0 / qcomp=0.60 / qpmin=0 / qpmax=69 / qpstep=4 / ip_ratio=1.40 / aq=3:0.90
  25. Default                                  : Yes
  26. Forced                                   : No
  27. Color range                              : Limited
  28. Matrix coefficients                      : BT.709

  29. Audio
  30. ID                                       : 2
  31. Format                                   : DTS XLL
  32. Format/Info                              : Digital Theater Systems
  33. Commercial name                          : DTS-HD Master Audio
  34. Codec ID                                 : A_DTS
  35. Duration                                 : 1 h 39 min
  36. Bit rate mode                            : Variable
  37. Bit rate                                 : 3 278 kb/s
  38. Channel(s)                               : 6 channels
  39. Channel layout                           : C L R Ls Rs LFE
  40. Sampling rate                            : 48.0 kHz
  41. Frame rate                               : 93.750 FPS (512 SPF)
  42. Bit depth                                : 24 bits
  43. Compression mode                         : Lossless
  44. Stream size                              : 2.28 GiB (22%)
  45. Language                                 : French
  46. Default                                  : Yes
  47. Forced                                   : No

  48. Text #1
  49. ID                                       : 3
  50. Format                                   : UTF-8
  51. Codec ID                                 : S_TEXT/UTF8
  52. Codec ID/Info                            : UTF-8 Plain Text
  53. Duration                                 : 1 h 38 min
  54. Bit rate                                 : 24 b/s
  55. Count of elements                        : 848
  56. Stream size                              : 18.0 KiB (0%)
  57. Title                                    : English (Forced)
  58. Language                                 : English
  59. Default                                  : Yes
  60. Forced                                   : Yes

  61. Text #2
  62. ID                                       : 4
  63. Format                                   : PGS
  64. Muxing mode                              : zlib
  65. Codec ID                                 : S_HDMV/PGS
  66. Codec ID/Info                            : Picture based subtitle format used on BDs/HD-DVDs
  67. Duration                                 : 1 h 38 min
  68. Bit rate                                 : 19.6 kb/s
  69. Count of elements                        : 1700
  70. Stream size                              : 13.9 MiB (0%)
  71. Title                                    : SDH
  72. Language                                 : English
  73. Default                                  : No
  74. Forced                                   : No

  75. Text #3
  76. ID                                       : 5
  77. Format                                   : PGS
  78. Muxing mode                              : zlib
  79. Codec ID                                 : S_HDMV/PGS
  80. Codec ID/Info                            : Picture based subtitle format used on BDs/HD-DVDs
  81. Duration                                 : 1 h 38 min
  82. Bit rate                                 : 16.7 kb/s
  83. Count of elements                        : 1700
  84. Stream size                              : 11.8 MiB (0%)
  85. Language                                 : English
  86. Default                                  : No
  87. Forced                                   : No

  88. Menu
  89. 00:00:00.000                             : Chapter 01
  90. 00:08:42.458                             : Chapter 02
  91. 00:24:10.292                             : Chapter 03
  92. 00:37:45.458                             : Chapter 04
  93. 00:50:24.333                             : Chapter 05
  94. 01:02:21.875                             : Chapter 06
  95. 01:13:11.583                             : Chapter 07
  96. 01:31:40.958                             : Chapter 08
  97. 01:39:35.958                             : Chapter 09
复制代码




                                       
                                       

                                       
                                       
                                       




回复

使用道具 举报

懒得打字嘛,点击右侧快捷回复 【右侧内容,后台自定义】
您需要登录后才可以回帖 登录 | 立即加入

本版积分规则

Archiver|小黑屋| 蓝光电影网 |网站地图

Copyright © 2021 Comsenz Inc. Powered by 蓝光电影网

蓝光电影网

本站内容由用户自主分享和转载自互联网,转载目的在于传递更多信息,并不代表本网赞同其观点和对其真实性负责。

如有侵权、违反国家法律政策行为,请联系我们,我们会第一时间及时清除和处理!

举报反馈邮箱:[email protected]

快速回复 返回顶部 返回列表