找回密码

蓝光电影网

查看: 127|回复: 0

[UHD.HEVC] 绿灯侠:绿灯长明 Green.Lantern.Beware.My.Power.2022.2160p.BluRay.REMUX.HEVC.DTS-HD.MA.5.1-FGT 33.37GB

[复制链接]
蓝光币
1022
发表于 2022-7-27 23:10:07 | 显示全部楼层 |阅读模式


◎标  题 绿灯侠:绿灯长明
◎片  名 Green Lantern: Beware My Power
◎年  代 2022
◎产  地 美国
◎类  别 动画
◎语  言 英语
◎IMDb链接 https://www.imdb.com/title//
◎豆瓣链接 https://movie.douban.com/subject/35633924/
◎简  介

  During today’s DC Fandome event a number of animated films were announced for the summer of 2022. Among them is Green Lantern: Beware My Power. No details were disclosed about the plot, characters, or casting.
  1. Video
  2. ID                                       : 1
  3. ID in the original source medium         : 4113 (0x1011)
  4. Format                                   : HEVC
  5. Format/Info                              : High Efficiency Video Coding
  6. Format profile                           : Main [email protected]@High
  7. HDR format                               : SMPTE ST 2086, HDR10 compatible
  8. Codec ID                                 : V_MPEGH/ISO/HEVC
  9. Duration                                 : 1 h 27 min
  10. Bit rate                                 : 50.6 Mb/s
  11. Width                                    : 3 840 pixels
  12. Height                                   : 2 160 pixels
  13. Display aspect ratio                     : 16:9
  14. Frame rate mode                          : Constant
  15. Frame rate                               : 23.976 (24000/1001/189150) FPS
  16. Color space                              : YUV
  17. Chroma subsampling                       : 4:2:0 (Type 2)
  18. Bit depth                                : 10 bits
  19. Bits/(Pixel*Frame)                       : 0.254
  20. Stream size                              : 30.9 GiB (93%)
  21. Writing library                          : ATEME Titan File 3.9.6 (4.9.6.2)        
  22. Language                                 : English
  23. Default                                  : No
  24. Forced                                   : No
  25. Color range                              : Limited
  26. Color primaries                          : BT.2020
  27. Transfer characteristics                 : PQ
  28. Matrix coefficients                      : BT.2020 non-constant
  29. Mastering display color primaries        : BT.2020
  30. Mastering display luminance              : min: 0.0050 cd/m2, max: 4000 cd/m2
  31. Maximum Content Light Level              : 355 cd/m2
  32. Maximum Frame-Average Light Level        : 169 cd/m2
  33. Original source medium                   : Blu-ray
  34. Audio #1
  35. ID                                       : 2
  36. ID in the original source medium         : 4352 (0x1100)
  37. Format                                   : DTS XLL
  38. Format/Info                              : Digital Theater Systems
  39. Commercial name                          : DTS-HD Master Audio
  40. Codec ID                                 : A_DTS
  41. Duration                                 : 1 h 27 min
  42. Bit rate mode                            : Variable
  43. Bit rate                                 : 2 049 kb/s
  44. Channel(s)                               : 6 channels
  45. Channel layout                           : C L R Ls Rs LFE
  46. Sampling rate                            : 48.0 kHz
  47. Frame rate                               : 93.750 FPS (512 SPF)
  48. Bit depth                                : 24 bits
  49. Compression mode                         : Lossless
  50. Stream size                              : 1.25 GiB (4%)
  51. Title                                    : DTS-HD MA 5.1
  52. Language                                 : English
  53. Default                                  : Yes
  54. Forced                                   : No
  55. Original source medium                   : Blu-ray
  56. Audio #2
  57. ID                                       : 3
  58. Format                                   : AC-3
  59. Format/Info                              : Audio Coding 3
  60. Commercial name                          : Dolby Digital
  61. Codec ID                                 : A_AC3
  62. Duration                                 : 1 h 27 min
  63. Bit rate mode                            : Constant
  64. Bit rate                                 : 640 kb/s
  65. Channel(s)                               : 6 channels
  66. Channel layout                           : L R C LFE Ls Rs
  67. Sampling rate                            : 48.0 kHz
  68. Frame rate                               : 31.250 FPS (1536 SPF)
  69. Compression mode                         : Lossy
  70. Stream size                              : 401 MiB (1%)
  71. Title                                    : DD 5.1
  72. Language                                 : English
  73. Service kind                             : Complete Main
  74. Default                                  : No
  75. Forced                                   : No
  76. Audio #3
  77. ID                                       : 4
  78. ID in the original source medium         : 4353 (0x1101)
  79. Format                                   : AC-3
  80. Format/Info                              : Audio Coding 3
  81. Commercial name                          : Dolby Digital
  82. Codec ID                                 : A_AC3
  83. Duration                                 : 1 h 27 min
  84. Bit rate mode                            : Constant
  85. Bit rate                                 : 640 kb/s
  86. Channel(s)                               : 6 channels
  87. Channel layout                           : L R C LFE Ls Rs
  88. Sampling rate                            : 48.0 kHz
  89. Frame rate                               : 31.250 FPS (1536 SPF)
  90. Compression mode                         : Lossy
  91. Stream size                              : 401 MiB (1%)
  92. Title                                    : DD 5.1
  93. Language                                 : French
  94. Service kind                             : Complete Main
  95. Default                                  : No
  96. Forced                                   : No
  97. Original source medium                   : Blu-ray
  98. Audio #4
  99. ID                                       : 5
  100. ID in the original source medium         : 4354 (0x1102)
  101. Format                                   : AC-3
  102. Format/Info                              : Audio Coding 3
  103. Commercial name                          : Dolby Digital
  104. Codec ID                                 : A_AC3
  105. Duration                                 : 1 h 27 min
  106. Bit rate mode                            : Constant
  107. Bit rate                                 : 640 kb/s
  108. Channel(s)                               : 6 channels
  109. Channel layout                           : L R C LFE Ls Rs
  110. Sampling rate                            : 48.0 kHz
  111. Frame rate                               : 31.250 FPS (1536 SPF)
  112. Compression mode                         : Lossy
  113. Stream size                              : 401 MiB (1%)
  114. Title                                    : DD 5.1
  115. Language                                 : Spanish
  116. Service kind                             : Complete Main
  117. Default                                  : No
  118. Forced                                   : No
  119. Original source medium                   : Blu-ray
  120. Text #1
  121. ID                                       : 6
  122. Format                                   : UTF-8
  123. Codec ID                                 : S_TEXT/UTF8
  124. Codec ID/Info                            : UTF-8 Plain Text
  125. Duration                                 : 1 h 23 min
  126. Bit rate                                 : 45 b/s
  127. Frame rate                               : 0.167 FPS
  128. Count of elements                        : 838
  129. Stream size                              : 28.2 KiB (0%)
  130. Language                                 : English
  131. Default                                  : Yes
  132. Forced                                   : No
  133. Text #2
  134. ID                                       : 7
  135. Format                                   : UTF-8
  136. Codec ID                                 : S_TEXT/UTF8
  137. Codec ID/Info                            : UTF-8 Plain Text
  138. Duration                                 : 1 h 24 min
  139. Bit rate                                 : 49 b/s
  140. Frame rate                               : 0.188 FPS
  141. Count of elements                        : 954
  142. Stream size                              : 30.4 KiB (0%)
  143. Title                                    : SDH
  144. Language                                 : English
  145. Default                                  : No
  146. Forced                                   : No
  147. Text #3
  148. ID                                       : 8
  149. ID in the original source medium         : 4768 (0x12A0)
  150. Format                                   : PGS
  151. Muxing mode                              : zlib
  152. Codec ID                                 : S_HDMV/PGS
  153. Codec ID/Info                            : Picture based subtitle format used on BDs/HD-DVDs
  154. Duration                                 : 1 h 24 min
  155. Bit rate                                 : 30.4 kb/s
  156. Frame rate                               : 0.377 FPS
  157. Count of elements                        : 1914
  158. Stream size                              : 18.4 MiB (0%)
  159. Language                                 : English
  160. Default                                  : No
  161. Forced                                   : No
  162. Original source medium                   : Blu-ray
  163. Text #4
  164. ID                                       : 9
  165. ID in the original source medium         : 4769 (0x12A1)
  166. Format                                   : PGS
  167. Muxing mode                              : zlib
  168. Codec ID                                 : S_HDMV/PGS
  169. Codec ID/Info                            : Picture based subtitle format used on BDs/HD-DVDs
  170. Duration                                 : 1 h 26 min
  171. Bit rate                                 : 31.8 kb/s
  172. Frame rate                               : 0.323 FPS
  173. Count of elements                        : 1674
  174. Stream size                              : 19.6 MiB (0%)
  175. Language                                 : French
  176. Default                                  : No
  177. Forced                                   : No
  178. Original source medium                   : Blu-ray
  179. Text #5
  180. ID                                       : 10
  181. ID in the original source medium         : 4770 (0x12A2)
  182. Format                                   : PGS
  183. Muxing mode                              : zlib
  184. Codec ID                                 : S_HDMV/PGS
  185. Codec ID/Info                            : Picture based subtitle format used on BDs/HD-DVDs
  186. Duration                                 : 1 h 24 min
  187. Bit rate                                 : 27.8 kb/s
  188. Frame rate                               : 0.329 FPS
  189. Count of elements                        : 1666
  190. Stream size                              : 16.8 MiB (0%)
  191. Language                                 : Spanish
  192. Default                                  : No
  193. Forced                                   : No
  194. Original source medium                   : Blu-ray
  195. Menu
  196. 00:00:00.000                             : en:Chapter 01
  197. 00:05:03.303                             : en:Chapter 02
  198. 00:14:52.892                             : en:Chapter 03
  199. 00:23:46.133                             : en:Chapter 04
  200. 00:29:35.356                             : en:Chapter 05
  201. 00:35:36.801                             : en:Chapter 06
  202. 00:45:13.293                             : en:Chapter 07
  203. 00:55:12.809                             : en:Chapter 08
  204. 01:04:57.101                             : en:Chapter 09
  205. 01:11:03.384                             : en:Chapter 10
  206. 01:18:26.368                             : en:Chapter 11
  207. 01:24:52.504                             : en:Chapter 12
复制代码




                                       
                                       

                                       
                                       
                                       




回复

使用道具 举报

懒得打字嘛,点击右侧快捷回复 【右侧内容,后台自定义】
您需要登录后才可以回帖 登录 | 立即加入

本版积分规则

Archiver|小黑屋| 蓝光电影网 |网站地图

Copyright © 2021 Comsenz Inc. Powered by 蓝光电影网

蓝光电影网

本站内容由用户自主分享和转载自互联网,转载目的在于传递更多信息,并不代表本网赞同其观点和对其真实性负责。

如有侵权、违反国家法律政策行为,请联系我们,我们会第一时间及时清除和处理!

举报反馈邮箱:[email protected]

快速回复 返回顶部 返回列表