找回密码

蓝光电影网

查看: 179|回复: 0

[2160p-WEB] 猎枭生死线[60帧率版本][中文字幕/国语音轨].Destined.Manhunt.After.Drug.Lord.2021.2160p.WEB-DL.60fps.H265.10bit.AAC-TAGWEB 2.54GB

[复制链接]
蓝光币
7
发表于 2022-7-28 01:41:23 | 显示全部楼层 |阅读模式


◎标  题 猎枭生死线
◎年  代 2021
◎IMDb链接 https://www.imdb.com/title//
◎豆瓣链接 https://movie.douban.com/subject/35295190/
  1. ##### MediaInfo ######
  2. General
  3. Complete name                            : Destined.Manhunt.After.Drug.Lord.2021.2160p.WEB-DL.60fps.H265.10bit.AAC-TAGWEB.mp4
  4. Format                                   : MPEG-4
  5. Format profile                           : Base Media
  6. Codec ID                                 : isom (isom/iso2/mp41)
  7. File size                                : 2.54 GiB
  8. Duration                                 : 1 h 16 min
  9. Overall bit rate mode                    : Variable
  10. Overall bit rate                         : 4 731 kb/s
  11. Writing application                      : Lavf58.32.104
  12. Video
  13. ID                                       : 1
  14. Format                                   : HEVC
  15. Format/Info                              : High Efficiency Video Coding
  16. Format profile                           : Main [email protected]@Main
  17. Codec ID                                 : hev1
  18. Codec ID/Info                            : High Efficiency Video Coding
  19. Duration                                 : 1 h 16 min
  20. Bit rate                                 : 4 528 kb/s
  21. Width                                    : 3 840 pixels
  22. Height                                   : 1 608 pixels
  23. Display aspect ratio                     : 2.40:1
  24. Frame rate mode                          : Constant
  25. Frame rate                               : 60.000 FPS
  26. Color space                              : YUV
  27. Chroma subsampling                       : 4:2:0
  28. Bit depth                                : 10 bits
  29. Bits/(Pixel*Frame)                       : 0.012
  30. Stream size                              : 2.43 GiB (96%)
  31. Color range                              : Limited
  32. Color primaries                          : BT.709
  33. Transfer characteristics                 : BT.709
  34. Matrix coefficients                      : BT.709
  35. Codec configuration box                  : hvcC
  36. Audio
  37. ID                                       : 2
  38. Format                                   : AAC LC
  39. Format/Info                              : Advanced Audio Codec Low Complexity
  40. Codec ID                                 : mp4a-40-2
  41. Duration                                 : 1 h 16 min
  42. Bit rate mode                            : Variable
  43. Bit rate                                 : 192 kb/s
  44. Channel(s)                               : 2 channels
  45. Channel layout                           : L R
  46. Sampling rate                            : 44.1 kHz
  47. Frame rate                               : 43.066 FPS (1024 SPF)
  48. Compression mode                         : Lossy
  49. Stream size                              : 104 MiB (4%)
  50. Default                                  : Yes
  51. Alternate group                          : 1
复制代码

















保举请利用qBittorrent,utorrent,transmission等标准BT软件下载!以获得最快速度。奉求保种!





回复

使用道具 举报

懒得打字嘛,点击右侧快捷回复 【右侧内容,后台自定义】
您需要登录后才可以回帖 登录 | 立即加入

本版积分规则

Archiver|小黑屋| 蓝光电影网 |网站地图

Copyright © 2021 Comsenz Inc. Powered by 蓝光电影网

蓝光电影网

本站内容由用户自主分享和转载自互联网,转载目的在于传递更多信息,并不代表本网赞同其观点和对其真实性负责。

如有侵权、违反国家法律政策行为,请联系我们,我们会第一时间及时清除和处理!

举报反馈邮箱:[email protected]

快速回复 返回顶部 返回列表