找回密码

蓝光电影网

查看: 103|回复: 0

[2160p-WEB] 我们的故事[中文字幕].Long.Long.Time.Ago.2016.2160p.WEB-DL.H265.AAC-TAGWEB 4.76GB

[复制链接]
蓝光币
7
发表于 2022-7-28 01:41:27 | 显示全部楼层 |阅读模式


◎标  题 我们的故事
◎译  名 Long Long Time Ago
◎年  代 2016
◎产  地 新加坡
◎类  别 剧情 / 笑剧 / 家庭
◎语  言 汉语普通话 / 闽南语 / 马来语 / 英语
◎上映日期 2016-02-04(新加坡)
◎IMDb评分 6.7/10 (192人评价)
◎IMDb链接 https://www.imdb.com/title/tt5291232/
◎豆瓣评分 8.4/10 (12127人评价)
◎豆瓣链接 https://movie.douban.com/subject/26705744/
◎片  长 107分钟
◎导  演 梁智强 Jack Neo
◎编  剧 梁智强 Jack Neo
       孙逸群 Link Sng
       夏友庆 Ivan Ho
◎演  员 陈丽贞 Aileen Tan
       李国煌 Mark Lee
       萨米·优素夫 Suhaimi Yusof
       陈俊铭 Benjamin Josiah Tan
       王雷 Lei Wang
       黄晶晶 Jing Jing Ng
       廖永谊 Ryan Lian
       薛素丽 Charmaine Sei
       黎沸挥 FeiHui Lee
       程旭辉 Henry Thia
       赖宇涵 Jaspers Lai
◎简  介
  本片以上世纪六十年月的当地家庭为主轴,经过成员的际遇,带出早期的甘榜生活以及后来的组屋生活,剧情横跨数十年。                                    
                                电影也将表现新加坡若何从一个以方言为支流说话的社会演酿成华语到现今英语的进程,从中回首流失的方言。它也会融入导演的很多亲身履历,并将安插多首怀旧歌曲。
  1. ##### MediaInfo ######
  2. General
  3. Complete name                            : Long.Long.Time.Ago.2016.2160p.WEB-DL.H265.AAC-TAGWEB.mp4
  4. Format                                   : MPEG-4
  5. Format profile                           : Base Media
  6. Codec ID                                 : isom (isom/iso2/mp41)
  7. File size                                : 4.76 GiB
  8. Duration                                 : 1 h 50 min
  9. Overall bit rate                         : 6 152 kb/s
  10. Writing application                      : Lavf59.16.100
  11. Video
  12. ID                                       : 1
  13. Format                                   : HEVC
  14. Format/Info                              : High Efficiency Video Coding
  15. Format profile                           : [email protected]@Main
  16. Codec ID                                 : hev1
  17. Codec ID/Info                            : High Efficiency Video Coding
  18. Duration                                 : 1 h 50 min
  19. Bit rate                                 : 6 017 kb/s
  20. Width                                    : 3 840 pixels
  21. Height                                   : 1 616 pixels
  22. Display aspect ratio                     : 2.40:1
  23. Frame rate mode                          : Variable
  24. Frame rate                               : 25.000 FPS
  25. Minimum frame rate                       : 24.993 FPS
  26. Maximum frame rate                       : 25.007 FPS
  27. Color space                              : YUV
  28. Chroma subsampling                       : 4:2:0
  29. Bit depth                                : 8 bits
  30. Bits/(Pixel*Frame)                       : 0.039
  31. Stream size                              : 4.65 GiB (98%)
  32. Color range                              : Limited
  33. Color primaries                          : BT.709
  34. Transfer characteristics                 : BT.709
  35. Matrix coefficients                      : BT.709
  36. Codec configuration box                  : hvcC
  37. Audio
  38. ID                                       : 2
  39. Format                                   : AAC LC
  40. Format/Info                              : Advanced Audio Codec Low Complexity
  41. Codec ID                                 : mp4a-40-2
  42. Duration                                 : 1 h 50 min
  43. Bit rate mode                            : Constant
  44. Bit rate                                 : 128 kb/s
  45. Channel(s)                               : 2 channels
  46. Channel layout                           : L R
  47. Sampling rate                            : 48.0 kHz
  48. Frame rate                               : 46.875 FPS (1024 SPF)
  49. Compression mode                         : Lossy
  50. Stream size                              : 101 MiB (2%)
  51. Default                                  : Yes
  52. Alternate group                          : 1
复制代码

















保举请利用qBittorrent,utorrent,transmission等标准BT软件下载!以获得最快速度。奉求保种!





回复

使用道具 举报

懒得打字嘛,点击右侧快捷回复 【右侧内容,后台自定义】
您需要登录后才可以回帖 登录 | 立即加入

本版积分规则

Archiver|小黑屋| 蓝光电影网 |网站地图

Copyright © 2021 Comsenz Inc. Powered by 蓝光电影网

蓝光电影网

本站内容由用户自主分享和转载自互联网,转载目的在于传递更多信息,并不代表本网赞同其观点和对其真实性负责。

如有侵权、违反国家法律政策行为,请联系我们,我们会第一时间及时清除和处理!

举报反馈邮箱:[email protected]

快速回复 返回顶部 返回列表