找回密码

蓝光电影网

查看: 423|回复: 2

[2160p-WEB] 机械玩家[国语配音/中文字幕].Top.Secret.2022.2160p.WEB-DL.H265.AAC-MOMOWEB 1.11GB

[复制链接]
蓝光币
8
发表于 2022-7-28 01:41:30 | 显示全部楼层 |阅读模式


◎标  题 机械玩家
◎年  代 2022
◎产  地 中国大陆
◎语  言 汉语普通话
◎上映日期 2022-07-26(中国大陆)
◎IMDb链接 https://www.imdb.com/title//
◎豆瓣链接 https://movie.douban.com/subject/36016035/
◎片  长 68分钟
◎演  员 石雪婧 Xuejing Shi
       曹震麟
◎简  介
  少年时的秦牧川与传送过来的年少形状苏杭相遇,起头了他们的拘束。成年后,秦牧川胡想加入火种科技,但蒙受失利而且经济压力庞大,经过代练《幻界》去赚取米饭钱和回避现实。苏杭一向寻觅秦牧川,某天敲开了他家的门,但秦牧川并没有记起苏杭是谁。就在二人长久重逢未几,游戏天下穿越到了现实,异种入侵,二人起头了逃生旅程。 在进程中,二人的感情逐步升温,背后的奥秘也逐步浮出水面。由于苏杭的穿越,致使未来逆反人类的星创提早诞生,而且启动和操控这个游戏。在未来,秦牧川是抵挡军魁首,由于保护苏杭牺牲。苏杭接管使命穿越到今世,要求培育练习秦牧川并带回未来。但苏杭并不愿意,只想在这个时代保护秦牧川。最初,苏杭牺牲自己与星创自爆,秦牧川活了下来。秦牧川由于救了火种科技魁首杨一,得以圆梦加入。为了新生苏杭,秦牧川起头研讨星创残骸。
  1. ##### MediaInfo ######
  2. General
  3. Unique ID                                : 75342269269493643106569048125255087246 (0x38AE64ABCC22E795BE2D6672D636748E)
  4. Complete name                            : Top.Secret.2022.2160p.WEB-DL.H265.AAC-MOMOWEB.mkv
  5. Format                                   : Matroska
  6. Format version                           : Version 4
  7. File size                                : 1.11 GiB
  8. Duration                                 : 1 h 8 min
  9. Overall bit rate                         : 2 330 kb/s
  10. Encoded date                             : UTC 2022-07-26 06:43:34
  11. Writing application                      : mkvmerge v58.0.0 ('Supper's Ready') 64-bit
  12. Writing library                          : libebml v1.4.2 + libmatroska v1.6.4
  13. Video
  14. ID                                       : 1
  15. Format                                   : HEVC
  16. Format/Info                              : High Efficiency Video Coding
  17. Format profile                           : [email protected]@Main
  18. Codec ID                                 : V_MPEGH/ISO/HEVC
  19. Duration                                 : 1 h 8 min
  20. Bit rate                                 : 2 203 kb/s
  21. Width                                    : 3 840 pixels
  22. Height                                   : 1 608 pixels
  23. Display aspect ratio                     : 2.40:1
  24. Frame rate mode                          : Constant
  25. Frame rate                               : 25.000 FPS
  26. Color space                              : YUV
  27. Chroma subsampling                       : 4:2:0
  28. Bit depth                                : 8 bits
  29. Bits/(Pixel*Frame)                       : 0.014
  30. Stream size                              : 1.05 GiB (95%)
  31. Language                                 : Chinese
  32. Default                                  : Yes
  33. Forced                                   : No
  34. Color range                              : Limited
  35. Color primaries                          : BT.709
  36. Transfer characteristics                 : BT.709
  37. Matrix coefficients                      : BT.709
  38. Audio
  39. ID                                       : 2
  40. Format                                   : AAC LC
  41. Format/Info                              : Advanced Audio Codec Low Complexity
  42. Codec ID                                 : A_AAC-2
  43. Duration                                 : 1 h 8 min
  44. Bit rate                                 : 125 kb/s
  45. Channel(s)                               : 2 channels
  46. Channel layout                           : L R
  47. Sampling rate                            : 48.0 kHz
  48. Frame rate                               : 46.875 FPS (1024 SPF)
  49. Compression mode                         : Lossy
  50. Delay relative to video                  : -42 ms
  51. Stream size                              : 61.3 MiB (5%)
  52. Language                                 : Chinese
  53. Default                                  : Yes
  54. Forced                                   : No
复制代码

















保举请利用qBittorrent,utorrent,transmission等标准BT软件下载!以获得最快速度。奉求保种!





回复

使用道具 举报

蓝光币
1202
发表于 2022-7-28 13:24:38 | 显示全部楼层
不错,收下了。
回复 支持 0 反对 1

使用道具 举报

蓝光币
12
发表于 2022-7-28 19:57:01 | 显示全部楼层
不错,收下了。
回复 支持 反对

使用道具 举报

懒得打字嘛,点击右侧快捷回复 【右侧内容,后台自定义】
您需要登录后才可以回帖 登录 | 立即加入

本版积分规则

Archiver|小黑屋| 蓝光电影网 |网站地图

Copyright © 2021 Comsenz Inc. Powered by 蓝光电影网

蓝光电影网

本站内容由用户自主分享和转载自互联网,转载目的在于传递更多信息,并不代表本网赞同其观点和对其真实性负责。

如有侵权、违反国家法律政策行为,请联系我们,我们会第一时间及时清除和处理!

举报反馈邮箱:[email protected]

快速回复 返回顶部 返回列表