找回密码

蓝光电影网

查看: 179|回复: 1

[2160p] 迷失之城[简繁英双语字幕].The.Lost.City.2022.UHD.BluRay.2160p.TrueHD.Atmos.7.1.x265.10bit.HDR-ALT 10.30GB

[复制链接]
蓝光币
8
发表于 2022-7-28 01:46:16 | 显示全部楼层 |阅读模式


◎标  题 丢失之城
◎译  名 丢失D城 / Lost City of D / 失惊无神闯谜城(港) / 失落谜城(台)
◎片  名 The Lost City
◎年  代 2022
◎产  地 美国
◎类  别 笑剧 / 行动 / 冒险
◎语  言 英语
◎上映日期 2022-06(中国大陆) / 2022-03-25(美国)
◎IMDb评分 6.1/10 (78671人评价)
◎IMDb链接 https://www.imdb.com/title/tt13320622/
◎豆瓣评分 5.3/10 (11185人评价)
◎豆瓣链接 https://movie.douban.com/subject/35303842/
◎片  长 112分钟
◎导  演 艾伦·尼 Aaron Nee
       亚当·尼 Adam Nee
◎编  剧 奥伦·尤济尔 Oren Uziel
       达纳·福克斯 Dana Fox
       亚当·尼 Adam Nee
       艾伦·尼 Aaron Nee
       赛斯·戈登 Seth Gordon
◎演  员 桑德拉·布洛克 Sandra Bullock
       查宁·塔图姆 Channing Tatum
       丹尼尔·雷德克里夫 Daniel Radcliffe
       达明·乔伊·伦道夫 Da'Vine Joy Randolph
       布拉德·皮特 Brad Pitt
       奥斯卡·努内斯 Oscar Nuñez
       帕蒂·哈里森 Patti Harrison
       杨伯文 Bowen Yang
       乔安·普林格尔 Joan Pringle
       赫克托·阿尼巴尔 Héctor Aníbal
       托马斯·福布斯·约翰逊 Thomas Forbes-Johnson
       斯莱·刘易斯 Sli Lewis
       亚当·尼 Adam Nee
       雷蒙德·李 Raymond Lee
       安东尼·阿尔瓦雷斯 Anthony Alvarez
       马西·哈罗 Marcy Jarreau
       瑞恩·贾德 Ryan Judd
       莉莎·蔡辛 Liza Chasin
       桑德拉·布洛克 Sandra Bullock
       赛斯·戈登 Seth Gordon
       玛琳·斯图尔特 Marlene Stewart
◎简  介
  洛蕾塔·塞琪(桑德拉·布洛克 饰)是一位才华横溢但与世隔断的作家。在她的畅销恋爱冒险小说里,总会出现很多奇异的地方。而作为本书的封面模特,艾伦(查宁·塔图姆 饰)平生都在努力于展现书中豪杰脚色“达什”的小我魅力。 ” 在与艾伦一路宣传新书时,洛雷塔被一位怪僻的亿万富翁(丹尼尔·雷德克里夫 饰)绑架。这位亿万富翁深信,洛蕾塔的新书能率领他找到失落古城中的宝藏。 与此同时,艾伦为了证实自己可以成为现实中的豪杰,而不但仅是洛蕾塔虚拟的人物,决议前往救援她。这对极差池付的同伴需要配合尽力,才能在邪恶的森林中保存下来,并在亿万富翁赶到前找到陈腐的宝藏。
  1. ##### MediaInfo ######
  2. General
  3. Unique ID                                : 92897946351565822159153070283958397601 (0x45E37E60D54684EA7D53B2EB76DE2AA1)
  4. Complete name                            : The.Lost.City.2022.UHD.BluRay.2160p.TrueHD.Atmos.7.1.x265.10bit.HDR-ALT.mkv
  5. Format                                   : Matroska
  6. Format version                           : Version 4
  7. File size                                : 10.3 GiB
  8. Duration                                 : 1 h 51 min
  9. Overall bit rate mode                    : Variable
  10. Overall bit rate                         : 13.2 Mb/s
  11. Encoded date                             : UTC 2022-07-26 13:28:58
  12. Writing application                      : mkvmerge v49.0.0 ('Sick Of Losing Soulmates') 64-bit
  13. Writing library                          : libebml v1.4.0 + libmatroska v1.6.1
  14. Video
  15. ID                                       : 1
  16. Format                                   : HEVC
  17. Format/Info                              : High Efficiency Video Coding
  18. Format profile                           : Main [email protected]@High
  19. HDR format                               : SMPTE ST 2086, HDR10 compatible
  20. Codec ID                                 : V_MPEGH/ISO/HEVC
  21. Duration                                 : 1 h 51 min
  22. Bit rate                                 : 8 253 kb/s
  23. Width                                    : 3 840 pixels
  24. Height                                   : 1 608 pixels
  25. Display aspect ratio                     : 2.40:1
  26. Frame rate mode                          : Constant
  27. Frame rate                               : 23.976 (24000/1001/53875) FPS
  28. Color space                              : YUV
  29. Chroma subsampling                       : 4:2:0 (Type 2)
  30. Bit depth                                : 10 bits
  31. Bits/(Pixel*Frame)                       : 0.056
  32. Stream size                              : 6.44 GiB (63%)
  33. Title                                    : HEVC, [email protected]@High, 24/1.001 fps @ 8252 kbps
  34. Writing library                          : x265 3.5+36-1f2c8da77:[Windows][GCC 11.2.0][64 bit] 10bit
  35. Encoding settings                        : cpuid=538751111039 / frame-threads=4 / numa-pools=20 / wpp / no-pmode / no-pme / no-psnr / no-ssim / log-level=2 / input-csp=1 / input-res=3840x1608 / interlace=0 / total-frames=160756 / level-idc=51 / high-tier=1 / uhd-bd=0 / ref=4 / no-allow-non-conformance / repeat-headers / annexb / no-aud / no-eob / no-eos / hrd / info / hash=0 / no-temporal-layers / no-open-gop / min-keyint=24 / keyint=240 / gop-lookahead=0 / bframes=8 / b-adapt=2 / b-pyramid / bframe-bias=0 / rc-lookahead=25 / lookahead-slices=0 / NTM4NzU=uuDQuD2mJt9fsCf / scenecut=40 / no-hist-scenecut / radl=0 / no-splice / no-intra-refresh / ctu=64 / min-cu-size=8 / no-rect / no-amp / max-tu-size=32 / tu-inter-depth=3 / tu-intra-depth=3 / limit-tu=4 / rdoq-level=2 / dynamic-rd=0.00 / no-ssim-rd / signhide / no-tskip / nr-intra=0 / nr-inter=0 / no-constrained-intra / no-strong-intra-smoothing / max-merge=4 / limit-refs=1 / limit-modes / me=3 / subme=4 / merange=57 / temporal-mvp / no-frame-dup / no-hme / weightp / weightb / no-analyze-src-pics / deblock=-3:-3 / no-sao / no-sao-non-deblock / rd=6 / selective-sao=0 / no-early-skip / rskip / no-fast-intra / no-tskip-fast / no-cu-lossless / b-intra / no-splitrd-skip / rdpenalty=0 / psy-rd=2.00 / psy-rdoq=1.00 / no-rd-refine / no-lossless / cbqpoffs=-2 / crqpoffs=-2 / rc=crf / crf=17.0 / qcomp=0.65 / qpstep=4 / stats-write=0 / stats-read=0 / vbv-maxrate=160000 / vbv-bufsize=160000 / vbv-init=0.9 / min-vbv-fullness=50.0 / max-vbv-fullness=80.0 / crf-max=0.0 / crf-min=0.0 / ipratio=1.30 / pbratio=1.20 / aq-mode=3 / aq-strength=0.85 / cutree / zone-count=0 / no-strict-cbr / qg-size=32 / no-rc-grain / qpmax=69 / qpmin=0 / no-const-vbv / sar=1 / overscan=0 / videoformat=5 / range=0 / colorprim=9 / transfer=16 / colormatrix=9 / chromaloc=1 / chromaloc-top=2 / chromaloc-bottom=2 / display-window=0 / master-display=G(13250,34500)B(7500,3000)R(34000,16000)WP(15635,16450)L(10000000,1) / cll=1000,353 / min-luma=0 / max-luma=1023 / log2-max-poc-lsb=8 / vui-timing-info / vui-hrd-info / slices=1 / no-opt-qp-pps / no-opt-ref-list-length-pps / no-multi-pass-opt-rps / scenecut-bias=0.05 / hist-threshold=0.03 / no-opt-cu-delta-qp / no-aq-motion / hdr10 / hdr10-opt / no-dhdr10-opt / no-idr-recovery-sei / analysis-reuse-level=0 / analysis-save-reuse-level=0 / analysis-load-reuse-level=0 / scale-factor=0 / refine-intra=0 / refine-inter=0 / refine-mv=1 / refine-ctu-distortion=0 / no-limit-sao / ctu-info=0 / no-lowpass-dct / refine-analysis-type=0 / copy-pic=1 / max-ausize-factor=1.0 / no-dynamic-refine / no-single-sei / no-hevc-aq / no-svt / no-field / qp-adaptation-range=1.00 / scenecut-aware-qp=0conformance-window-offsets / right=0 / bottom=0 / NTM4NzU= / decoder-max-rate=0 / no-vbv-live-multi-pass
  36. Language                                 : English
  37. Default                                  : Yes
  38. Forced                                   : No
  39. Color range                              : Limited
  40. Color primaries                          : BT.2020
  41. Transfer characteristics                 : PQ
  42. Matrix coefficients                      : BT.2020 non-constant
  43. Mastering display color primaries        : Display P3
  44. Mastering display luminance              : min: 0.0001 cd/m2, max: 1000 cd/m2
  45. Maximum Content Light Level              : 1000 cd/m2
  46. Maximum Frame-Average Light Level        : 353 cd/m2
  47. Audio #1
  48. ID                                       : 2
  49. Format                                   : MLP FBA 16-ch
  50. Format/Info                              : Meridian Lossless Packing FBA with 16-channel presentation
  51. Commercial name                          : Dolby TrueHD with Dolby Atmos
  52. Codec ID                                 : A_TRUEHD
  53. Duration                                 : 1 h 51 min
  54. Bit rate mode                            : Variable
  55. Bit rate                                 : 3 897 kb/s
  56. Maximum bit rate                         : 6 855 kb/s
  57. Channel(s)                               : 8 channels
  58. Channel layout                           : L R C LFE Ls Rs Lb Rb
  59. Sampling rate                            : 48.0 kHz
  60. Frame rate                               : 1 200.000 FPS (40 SPF)
  61. Compression mode                         : Lossless
  62. Stream size                              : 3.04 GiB (30%)
  63. Title                                    : English Dolby TrueHD 7.1 (Atmos) @ 3897 kbps
  64. Language                                 : English
  65. Default                                  : Yes
  66. Forced                                   : No
  67. Number of dynamic objects                : 11
  68. Bed channel count                        : 1 channel
  69. Bed channel configuration                : LFE
  70. Audio #2
  71. ID                                       : 3
  72. Format                                   : AC-3
  73. Format/Info                              : Audio Coding 3
  74. Commercial name                          : Dolby Digital
  75. Codec ID                                 : A_AC3
  76. Duration                                 : 1 h 51 min
  77. Bit rate mode                            : Constant
  78. Bit rate                                 : 640 kb/s
  79. Channel(s)                               : 6 channels
  80. Channel layout                           : L R C LFE Ls Rs
  81. Sampling rate                            : 48.0 kHz
  82. Frame rate                               : 31.250 FPS (1536 SPF)
  83. Compression mode                         : Lossy
  84. Stream size                              : 512 MiB (5%)
  85. Title                                    : English AC3 5.1-EX @ 640 kbps
  86. Language                                 : English
  87. Service kind                             : Complete Main
  88. Default                                  : No
  89. Forced                                   : No
  90. Text #1
  91. ID                                       : 4
  92. Format                                   : PGS
  93. Codec ID                                 : S_HDMV/PGS
  94. Codec ID/Info                            : Picture based subtitle format used on BDs/HD-DVDs
  95. Duration                                 : 1 h 45 min
  96. Bit rate                                 : 51.4 kb/s
  97. Count of elements                        : 3314
  98. Stream size                              : 38.6 MiB (0%)
  99. Title                                    : Eng/SUP
  100. Language                                 : English
  101. Default                                  : No
  102. Forced                                   : No
  103. Text #2
  104. ID                                       : 5
  105. Format                                   : PGS
  106. Codec ID                                 : S_HDMV/PGS
  107. Codec ID/Info                            : Picture based subtitle format used on BDs/HD-DVDs
  108. Duration                                 : 1 h 45 min
  109. Bit rate                                 : 58.9 kb/s
  110. Count of elements                        : 3816
  111. Stream size                              : 44.3 MiB (0%)
  112. Title                                    : Eng/SUP  SDH
  113. Language                                 : English
  114. Default                                  : No
  115. Forced                                   : No
  116. Text #3
  117. ID                                       : 6
  118. Format                                   : PGS
  119. Codec ID                                 : S_HDMV/PGS
  120. Codec ID/Info                            : Picture based subtitle format used on BDs/HD-DVDs
  121. Duration                                 : 1 h 51 min
  122. Bit rate                                 : 39.3 kb/s
  123. Count of elements                        : 3322
  124. Stream size                              : 31.2 MiB (0%)
  125. Title                                    : Chs/SUP  原盘简体
  126. Language                                 : Chinese
  127. Default                                  : No
  128. Forced                                   : No
  129. Text #4
  130. ID                                       : 7
  131. Format                                   : PGS
  132. Codec ID                                 : S_HDMV/PGS
  133. Codec ID/Info                            : Picture based subtitle format used on BDs/HD-DVDs
  134. Duration                                 : 1 h 51 min
  135. Bit rate                                 : 39.1 kb/s
  136. Count of elements                        : 3322
  137. Stream size                              : 31.0 MiB (0%)
  138. Title                                    : Cht/SUP  原盘繁体(HK)
  139. Language                                 : Chinese
  140. Default                                  : No
  141. Forced                                   : No
  142. Text #5
  143. ID                                       : 8
  144. Format                                   : PGS
  145. Codec ID                                 : S_HDMV/PGS
  146. Codec ID/Info                            : Picture based subtitle format used on BDs/HD-DVDs
  147. Duration                                 : 1 h 51 min
  148. Bit rate                                 : 33.6 kb/s
  149. Count of elements                        : 3254
  150. Stream size                              : 26.7 MiB (0%)
  151. Title                                    : Cht/SUP  原盘繁体(TW)
  152. Language                                 : Chinese
  153. Default                                  : No
  154. Forced                                   : No
  155. Text #6
  156. ID                                       : 9
  157. Format                                   : PGS
  158. Codec ID                                 : S_HDMV/PGS
  159. Codec ID/Info                            : Picture based subtitle format used on BDs/HD-DVDs
  160. Duration                                 : 1 h 45 min
  161. Bit rate                                 : 65.3 kb/s
  162. Count of elements                        : 3407
  163. Stream size                              : 49.4 MiB (0%)
  164. Title                                    : Chs/SUP  简英双语
  165. Language                                 : Chinese
  166. Default                                  : Yes
  167. Forced                                   : No
  168. Text #7
  169. ID                                       : 10
  170. Format                                   : PGS
  171. Codec ID                                 : S_HDMV/PGS
  172. Codec ID/Info                            : Picture based subtitle format used on BDs/HD-DVDs
  173. Duration                                 : 1 h 45 min
  174. Bit rate                                 : 65.7 kb/s
  175. Count of elements                        : 3407
  176. Stream size                              : 49.8 MiB (0%)
  177. Title                                    : Cht/SUP  繁英双语
  178. Language                                 : Chinese
  179. Default                                  : No
  180. Forced                                   : No
  181. Menu
  182. 00:00:00.000                             : en:第 01 章
  183. 00:11:26.728                             : en:第 02 章
  184. 00:19:31.670                             : en:第 03 章
  185. 00:26:55.572                             : en:第 04 章
  186. 00:33:43.313                             : en:第 05 章
  187. 00:41:30.029                             : en:第 06 章
  188. 00:50:29.944                             : en:第 07 章
  189. 01:02:19.194                             : en:第 08 章
  190. 01:13:31.073                             : en:第 09 章
  191. 01:23:19.286                             : en:第 10 章
  192. 01:34:35.253                             : en:第 11 章
  193. 01:44:53.621                             : en:第 12 章
复制代码

















保举请利用qBittorrent,utorrent,transmission等标准BT软件下载!以获得最快速度。奉求保种!





回复

使用道具 举报

蓝光币
518
发表于 2022-7-29 07:56:18 | 显示全部楼层
好片,支持一下,谢谢分享
回复 支持 反对

使用道具 举报

懒得打字嘛,点击右侧快捷回复 【右侧内容,后台自定义】
您需要登录后才可以回帖 登录 | 立即加入

本版积分规则

Archiver|小黑屋| 蓝光电影网 |网站地图

Copyright © 2021 Comsenz Inc. Powered by 蓝光电影网

蓝光电影网

本站内容由用户自主分享和转载自互联网,转载目的在于传递更多信息,并不代表本网赞同其观点和对其真实性负责。

如有侵权、违反国家法律政策行为,请联系我们,我们会第一时间及时清除和处理!

举报反馈邮箱:[email protected]

快速回复 返回顶部 返回列表