找回密码

蓝光电影网

查看: 245|回复: 0

[2160p] 月光光心慌慌:杀戮[简繁英双语字幕].Halloween.Kills.2021.Extended.Cut.UHD.BluRay.2160p.TrueHD.Atmos.7.1.x265.10bit.HDR-ALT 14.29GB

[复制链接]
蓝光币
8
发表于 2022-7-28 01:46:20 | 显示全部楼层 |阅读模式


◎标  题 月光光心慌慌:杀戮
◎译  名 月光光新慌慌:万圣杀(台) / 月光光心慌慌:万圣节杀戮 / 万圣节杀戮 / 月光光殺清光(港)
◎片  名 Halloween Kills
◎年  代 2021
◎产  地 英国 / 美国
◎类  别 惊悚 / 可骇
◎语  言 英语
◎上映日期 2021-09-08(威尼斯电影节) / 2021-10-15(美国/美国收集)
◎IMDb评分 5.7/10 (59611人评价)
◎IMDb链接 https://www.imdb.com/title/tt10665338/
◎豆瓣评分 4.9/10 (4028人评价)
◎豆瓣链接 https://movie.douban.com/subject/34626280/
◎片  长 106分钟
◎导  演 大卫·戈登·格林 David Gordon Green
◎编  剧 约翰·卡朋特 John Carpenter
       大卫·戈登·格林 David Gordon Green
       黛布拉·希尔 Debra Hill
       丹尼·麦克布莱德 Danny McBride
       斯科特·泰姆斯 Scott Teems
◎演  员 杰米·李·柯蒂斯 Jamie Lee Curtis
       朱迪·格雷尔 Judy Greer
       詹姆斯·裘德·柯特尼 James Jude Courtney
       尼克·卡斯特尔 Nick Castle
       安迪·马蒂切克 Andi Matichak
       凯尔·理查兹 Kyle Richards
       威尔·帕顿 Will Patton
       托马斯·曼 Thomas Mann
       吉姆·卡明斯 Jim Cummings
       迪伦·阿诺德 Dylan Arnold
       罗伯特·朗斯特里特 Robert Longstreet
       安东尼·迈克尔·豪尔 Anthony Michael Hall
       Charles Cyphers Charles Cyphers
       斯科特·麦克阿瑟 Scott MacArthur
       迈克尔·麦克唐纳 Michael McDonald
       南希·斯蒂芬斯 Nancy Stephens
       莱尼·克拉克 Lenny Clarke
       奥马尔·J·多尔西 Omar J. Dorsey
       布莱恩·杜尔金 Brian F. Durkin
       德鲁·谢伊德 Drew Scheid
       尼古拉斯·普赖尔 Nicholas Pryor
       迈克尔·梅卡尔迪 Michael Mercaldi
       Drew Broderick Drew Broderick
       吉布瑞尔·南谭布 Jibrail Nantambu
       P·J·索尔丝 P.J. Soles
       鲍勃·奥及第克 Bob Odenkirk
       安迪·贝西亚 Andy Bethea
       卡德罗莎·奥娜·卡罗尔
        Matthew Warzel
       Tanya Jacobson Tanya Jacobson
       迪索·拉莫斯 Diezel Ramos
       迪瓦·泰勒 Diva Tyler
       Salem Collins Salem Collins
       约翰·卡朋特 John Carpenter
       迈克尔·西蒙兹 Michael Simmonds
       艾米丽·冈肖尔 Emily Gunshor
◎标  签 可骇 / 惊悚 / 美国 / 血腥 / 2021 / 犯罪 / 月光光心慌慌 / 英国
◎简  介
  自洛莉·史特罗德与其女凯伦以及孙女艾莉森想法将迈克·梅尔斯置于火海圈套以后,麦克成功脱逃,继续他的杀戮,并一路杀到他的故乡——哈顿费尔德(Haddonfield),洛莉三人只能再次为抗击麦克做好预备。她们在鼓舞当地公众的同时,与首起屠杀的幸存者组成一支义勇团队,誓在当晚将这位杀人狂魔就地正法。
  1. ##### MediaInfo ######
  2. General
  3. Unique ID                                : 139035830738267630173050883506309506472 (0x689953B4B5A34AD7033D7B96BDD525A8)
  4. Complete name                            : Halloween.Kills.2021.Extended.Cut.UHD.BluRay.2160p.TrueHD.Atmos.7.1.x265.10bit.HDR-ALT.mkv
  5. Format                                   : Matroska
  6. Format version                           : Version 4
  7. File size                                : 14.3 GiB
  8. Duration                                 : 1 h 49 min
  9. Overall bit rate mode                    : Variable
  10. Overall bit rate                         : 18.7 Mb/s
  11. Encoded date                             : UTC 2022-01-17 04:48:20
  12. Writing application                      : mkvmerge v49.0.0 ('Sick Of Losing Soulmates') 64-bit
  13. Writing library                          : libebml v1.4.0 + libmatroska v1.6.1
  14. Video
  15. ID                                       : 1
  16. Format                                   : HEVC
  17. Format/Info                              : High Efficiency Video Coding
  18. Format profile                           : Main [email protected]@High
  19. HDR format                               : SMPTE ST 2086, HDR10 compatible
  20. Codec ID                                 : V_MPEGH/ISO/HEVC
  21. Duration                                 : 1 h 49 min
  22. Bit rate                                 : 14.8 Mb/s
  23. Width                                    : 3 840 pixels
  24. Height                                   : 1 608 pixels
  25. Display aspect ratio                     : 2.40:1
  26. Frame rate mode                          : Constant
  27. Frame rate                               : 23.976 (24000/1001/53875) FPS
  28. Color space                              : YUV
  29. Chroma subsampling                       : 4:2:0 (Type 2)
  30. Bit depth                                : 10 bits
  31. Bits/(Pixel*Frame)                       : 0.100
  32. Stream size                              : 11.3 GiB (79%)
  33. Title                                    : HEVC, [email protected]@High, 24/1.001 fps @ 14798 kbps
  34. Writing library                          : x265 3.4+14-gd419c7152:[Windows][GCC 10.2.0][64 bit] 10bit
  35. Encoding settings                        : cpuid=538751111039 / frame-threads=4 / numa-pools=20 / wpp / pmode / pme / no-psnr / no-ssim / log-level=2 / input-csp=1 / input-res=3840x1608 / interlace=0 / total-frames=156980 / level-idc=51 / high-tier=1 / uhd-bd=0 / ref=4 / no-allow-non-conformance / repeat-headers / annexb / no-aud / hrd / info / hash=0 / no-temporal-layers / no-open-gop / min-keyint=24 / keyint=240 / gop-lookahead=0 / bframes=8 / b-adapt=2 / b-pyramid / bframe-bias=0 / rc-lookahead=25 / lookahead-slices=0 / NTM4NzU=uuDQuD2mJt9fsCf / scenecut=40 / hist-scenecut=0 / radl=0 / no-splice / no-intra-refresh / ctu=64 / min-cu-size=8 / no-rect / no-amp / max-tu-size=32 / tu-inter-depth=3 / tu-intra-depth=3 / limit-tu=4 / rdoq-level=2 / dynamic-rd=0.00 / no-ssim-rd / signhide / no-tskip / nr-intra=0 / nr-inter=0 / no-constrained-intra / no-strong-intra-smoothing / max-merge=4 / limit-refs=1 / limit-modes / me=3 / subme=4 / merange=57 / temporal-mvp / no-frame-dup / no-hme / weightp / weightb / no-analyze-src-pics / deblock=-3:-3 / no-sao / no-sao-non-deblock / rd=6 / selective-sao=0 / no-early-skip / rskip / no-fast-intra / no-tskip-fast / no-cu-lossless / b-intra / no-splitrd-skip / rdpenalty=0 / psy-rd=2.00 / psy-rdoq=1.00 / no-rd-refine / no-lossless / cbqpoffs=0 / crqpoffs=0 / rc=crf / crf=19.5 / qcomp=0.65 / qpstep=4 / stats-write=0 / stats-read=0 / vbv-maxrate=160000 / vbv-bufsize=160000 / vbv-init=0.9 / crf-max=0.0 / crf-min=0.0 / ipratio=1.30 / pbratio=1.20 / aq-mode=3 / aq-strength=0.85 / cutree / zone-count=0 / no-strict-cbr / qg-size=32 / no-rc-grain / qpmax=69 / qpmin=0 / no-const-vbv / sar=1 / overscan=0 / videoformat=5 / range=0 / colorprim=9 / transfer=16 / colormatrix=9 / chromaloc=1 / chromaloc-top=2 / chromaloc-bottom=2 / display-window=0 / master-display=G(13250,34500)B(7500,3000)R(34000,16000)WP(15635,16450)L(10000000,10) / cll=393,154 / min-luma=0 / max-luma=1023 / log2-max-poc-lsb=8 / vui-timing-info / vui-hrd-info / slices=1 / no-opt-qp-pps / no-opt-ref-list-length-pps / no-multi-pass-opt-rps / scenecut-bias=0.05 / hist-threshold=0.03 / no-opt-cu-delta-qp / no-aq-motion / hdr10 / hdr10-opt / no-dhdr10-opt / no-idr-recovery-sei / analysis-reuse-level=0 / analysis-save-reuse-level=0 / analysis-load-reuse-level=0 / scale-factor=0 / refine-intra=0 / refine-inter=0 / refine-mv=1 / refine-ctu-distortion=0 / no-limit-sao / ctu-info=0 / no-lowpass-dct / refine-analysis-type=0 / copy-pic=1 / max-ausize-factor=1.0 / no-dynamic-refine / no-single-sei / no-hevc-aq / no-svt / no-field / qp-adaptation-range=1.00 / no-scenecut-aware-qpconformance-window-offsets / right=0 / bottom=0 / NTM4NzU= / decoder-max-rate=0
  36. Language                                 : English
  37. Default                                  : Yes
  38. Forced                                   : No
  39. Color range                              : Limited
  40. Color primaries                          : BT.2020
  41. Transfer characteristics                 : PQ
  42. Matrix coefficients                      : BT.2020 non-constant
  43. Mastering display color primaries        : Display P3
  44. Mastering display luminance              : min: 0.0010 cd/m2, max: 1000 cd/m2
  45. Maximum Content Light Level              : 393 cd/m2
  46. Maximum Frame-Average Light Level        : 154 cd/m2
  47. Audio #1
  48. ID                                       : 2
  49. Format                                   : MLP FBA 16-ch
  50. Format/Info                              : Meridian Lossless Packing FBA with 16-channel presentation
  51. Commercial name                          : Dolby TrueHD with Dolby Atmos
  52. Codec ID                                 : A_TRUEHD
  53. Duration                                 : 1 h 49 min
  54. Bit rate mode                            : Variable
  55. Bit rate                                 : 2 932 kb/s
  56. Maximum bit rate                         : 3 744 kb/s
  57. Channel(s)                               : 8 channels
  58. Channel layout                           : L R C LFE Ls Rs Lb Rb
  59. Sampling rate                            : 48.0 kHz
  60. Frame rate                               : 1 200.000 FPS (40 SPF)
  61. Compression mode                         : Lossless
  62. Stream size                              : 2.23 GiB (16%)
  63. Title                                    : English Dolby TrueHD 7.1 (Atmos) @ 3384 kbps
  64. Language                                 : English
  65. Default                                  : Yes
  66. Forced                                   : No
  67. Number of dynamic objects                : 11
  68. Bed channel count                        : 1 channel
  69. Bed channel configuration                : LFE
  70. Audio #2
  71. ID                                       : 3
  72. Format                                   : AC-3
  73. Format/Info                              : Audio Coding 3
  74. Commercial name                          : Dolby Digital
  75. Codec ID                                 : A_AC3
  76. Duration                                 : 1 h 49 min
  77. Bit rate mode                            : Constant
  78. Bit rate                                 : 640 kb/s
  79. Channel(s)                               : 6 channels
  80. Channel layout                           : L R C LFE Ls Rs
  81. Sampling rate                            : 48.0 kHz
  82. Frame rate                               : 31.250 FPS (1536 SPF)
  83. Compression mode                         : Lossy
  84. Stream size                              : 500 MiB (3%)
  85. Title                                    : English Dolby 5.1-EX 5.1 @ 448 kbps
  86. Language                                 : English
  87. Service kind                             : Complete Main
  88. Default                                  : No
  89. Forced                                   : No
  90. Audio #3
  91. ID                                       : 4
  92. Format                                   : AC-3
  93. Format/Info                              : Audio Coding 3
  94. Commercial name                          : Dolby Digital
  95. Codec ID                                 : A_AC3
  96. Duration                                 : 1 h 49 min
  97. Bit rate mode                            : Constant
  98. Bit rate                                 : 192 kb/s
  99. Channel(s)                               : 2 channels
  100. Channel layout                           : L R
  101. Sampling rate                            : 48.0 kHz
  102. Frame rate                               : 31.250 FPS (1536 SPF)
  103. Compression mode                         : Lossy
  104. Stream size                              : 150 MiB (1%)
  105. Title                                    : English Dolby Digital Audio 2.0 @ 192 kbps  Commentary
  106. Language                                 : English
  107. Service kind                             : Complete Main
  108. Default                                  : No
  109. Forced                                   : No
  110. Text #1
  111. ID                                       : 5
  112. Format                                   : PGS
  113. Codec ID                                 : S_HDMV/PGS
  114. Codec ID/Info                            : Picture based subtitle format used on BDs/HD-DVDs
  115. Duration                                 : 1 h 45 min
  116. Bit rate                                 : 40.0 kb/s
  117. Count of elements                        : 2980
  118. Stream size                              : 30.1 MiB (0%)
  119. Title                                    : Eng/SUP
  120. Language                                 : English
  121. Default                                  : No
  122. Forced                                   : No
  123. Text #2
  124. ID                                       : 6
  125. Format                                   : PGS
  126. Codec ID                                 : S_HDMV/PGS
  127. Codec ID/Info                            : Picture based subtitle format used on BDs/HD-DVDs
  128. Duration                                 : 1 h 42 min
  129. Bit rate                                 : 37.6 kb/s
  130. Count of elements                        : 3028
  131. Stream size                              : 27.6 MiB (0%)
  132. Title                                    : Chs/SUP  简英双语
  133. Language                                 : Chinese
  134. Default                                  : Yes
  135. Forced                                   : No
  136. Text #3
  137. ID                                       : 7
  138. Format                                   : PGS
  139. Codec ID                                 : S_HDMV/PGS
  140. Codec ID/Info                            : Picture based subtitle format used on BDs/HD-DVDs
  141. Duration                                 : 1 h 42 min
  142. Bit rate                                 : 38.6 kb/s
  143. Count of elements                        : 3028
  144. Stream size                              : 28.3 MiB (0%)
  145. Title                                    : Cht/SUP  繁英双语
  146. Language                                 : Chinese
  147. Default                                  : No
  148. Forced                                   : No
  149. Menu
  150. 00:00:00.000                             : en:第 01 章
  151. 00:08:17.956                             : en:第 02 章
  152. 00:15:10.743                             : en:第 03 章
  153. 00:19:55.277                             : en:第 04 章
  154. 00:26:17.576                             : en:第 05 章
  155. 00:32:32.117                             : en:第 06 章
  156. 00:38:01.613                             : en:第 07 章
  157. 00:42:30.214                             : en:第 08 章
  158. 00:46:52.935                             : en:第 09 章
  159. 00:49:09.113                             : en:第 10 章
  160. 00:55:07.846                             : en:第 11 章
  161. 01:01:33.231                             : en:第 12 章
  162. 01:06:04.586                             : en:第 13 章
  163. 01:11:29.493                             : en:第 14 章
  164. 01:16:19.408                             : en:第 15 章
  165. 01:22:15.722                             : en:第 16 章
  166. 01:26:26.014                             : en:第 17 章
  167. 01:30:06.985                             : en:第 18 章
  168. 01:35:24.594                             : en:第 19 章
  169. 01:44:07.658                             : en:第 20 章
复制代码

















保举请利用qBittorrent,utorrent,transmission等标准BT软件下载!以获得最快速度。奉求保种!





回复

使用道具 举报

懒得打字嘛,点击右侧快捷回复 【右侧内容,后台自定义】
您需要登录后才可以回帖 登录 | 立即加入

本版积分规则

Archiver|小黑屋| 蓝光电影网 |网站地图

Copyright © 2021 Comsenz Inc. Powered by 蓝光电影网

蓝光电影网

本站内容由用户自主分享和转载自互联网,转载目的在于传递更多信息,并不代表本网赞同其观点和对其真实性负责。

如有侵权、违反国家法律政策行为,请联系我们,我们会第一时间及时清除和处理!

举报反馈邮箱:[email protected]

快速回复 返回顶部 返回列表