找回密码

蓝光电影网

查看: 214|回复: 3

[2160p] 好家伙[简繁英字幕].Goodfellas.1990.UHD.BluRay.2160p.DTS-HD.MA.5.1.x265.10bit.HDR-ALT 30.96GB

[复制链接]
蓝光币
8
发表于 2022-7-28 01:46:37 | 显示全部楼层 |阅读模式


◎标  题 好家伙
◎译  名 盗亦有道(港) / 四海好家伙(台)
◎片  名 GoodFellas
◎年  代 1990
◎产  地 美国
◎类  别 剧情 / 列传 / 犯罪
◎语  言 英语 / 意大利语
◎上映日期 1990-09-09(威尼斯电影节) / 1990-09-21(美国)
◎IMDb评分 8.7/10 (1083186人评价)
◎IMDb链接 https://www.imdb.com/title/tt0099685/
◎豆瓣评分 8.5/10 (98407人评价)
◎豆瓣链接 https://movie.douban.com/subject/1292268/
◎片  长 146分钟
◎导  演 马丁·斯科塞斯 Martin Scorsese
◎编  剧 马丁·斯科塞斯 Martin Scorsese
       尼古拉斯·派勒吉 Nicholas Pileggi
◎演  员 罗伯特·德尼罗 Robert De Niro
       雷·利奥塔 Ray Liotta
       乔·佩西 Joe Pesci
       洛南·布雷科 Lorraine Bracco
       保罗·索维诺 Paul Sorvino
       弗兰克·西维罗 Frank Sivero
       托尼·戴劳 Tony Darrow
       迈克·斯塔尔 Mike Starr
       弗兰克·文森特 Frank Vincent
       查克·洛 Chuck Low
       弗兰克·迪莱奥 Frank DiLeo
       亨利·扬曼 Henny Youngman
       吉娜·马斯特罗吉科莫 Gina Mastrogiacomo
       凯瑟琳·斯科塞斯 Catherine Scorsese
       查尔斯·斯科西斯 Charles Scorsese
       苏珊妮·谢泼德 Suzanne Shepherd
       黛比·玛扎 Debi Mazar
       塞缪尔·杰克逊 Samuel L. Jackson
       迈克尔·因佩里奥利 Michael Imperioli
       文森特·加洛 Vincent Gallo
       博斯塔尔 Beau Starr
       弗兰克·德拉邦特 Frank Darabont
       艾伦·休斯 Allen Hughes
       理查德·林克莱特 Richard Linklater
       乔·卡纳汉 Joe Carnahan
       艾尔伯特·休斯 Albert Hughes
       安东尼·福奎阿 Antoine Fuqua
       维克托·科利采奇妙 Victor Colicchio
       托宾·贝尔 Tobin Bell
       Bruce S. Pustin Bruce S. Pustin
       杰弗里·施瓦茨 Jeffrey Schwarz
       Barbara De Fina Barbara De Fina
       迈克尔·包豪斯 Michael Ballhaus
       埃伦·路易斯 Ellen Lewis
       莱斯利·布鲁姆 Leslie Bloom
       Richard Bruno Richard Bruno
       卡尔·富勒顿 Carl Fullerton
       Allen Weisinger Allen Weisinger
       艾兰·丹格里奥 Alan D'Angerio
       William A. Farley William A. Farley
       约瑟夫·莱迪 Joseph P. Reidy
       理查德·格林伯格 Richard Greenberg
◎标  签 黑帮 / 美国 / 犯罪 / 典范 / 1990 / 剧情 / 暴力 / 列传
◎简  介
  本片按照实在故事改编,报告了纽约黑手党血腥的江湖恩怨,把所谓的“江湖道义”复原为人性的丑陋与贪心。                                    
                                亨利•希尔(雷•李欧塔 饰)从小不学无术,随着老迈保利,靠收取庇护费、走私、抢劫,他娶了美丽的妻子凯伦,故意爱的女儿,诱人的情妇,名车豪宅,生活优渥。                                    
                                吉米•康维(罗伯特•德尼罗 饰)和汤米(乔•佩西 饰)是亨利的好朋友,三人一路履历和很多工作:杀死羞辱汤米的意大利黑手党头目比利•贝兹;策划德航劫案,并干掉朋友,私吞赃款;甚至背着老迈保利贩毒。                                    
                                固然,他们的生活,除了享用金钱带来的势力之外,更多的,是朝不保夕的动乱:汤米由于比利•贝兹的死,被人枪杀;亨利自己由于贩毒被警方拘系,其他人也遭到连累。                                    
                                凯伦想尽法子将亨利保释出来,此时他们已经一无一切,被人孤立,危机四伏。他们要想尽法子活下去,不管以怎样的方式,支出怎样的价格……
  1. ##### MediaInfo ######
  2. General
  3. Unique ID                                : 113965505356865196374376224977601786591 (0x55BCF53B843F1C27BF880E0E912D72DF)
  4. Complete name                            : Goodfellas.1990.UHD.BluRay.2160p.DTS-HD.MA.5.1.x265.10bit.HDR-ALT.mkv
  5. Format                                   : Matroska
  6. Format version                           : Version 4
  7. File size                                : 31.0 GiB
  8. Duration                                 : 2 h 25 min
  9. Overall bit rate mode                    : Variable
  10. Overall bit rate                         : 30.5 Mb/s
  11. Encoded date                             : UTC 2019-09-21 02:10:37
  12. Writing application                      : mkvmerge v37.0.0 ('Leave It') 64-bit
  13. Writing library                          : libebml v1.3.9 + libmatroska v1.5.2
  14. Video
  15. ID                                       : 1
  16. Format                                   : HEVC
  17. Format/Info                              : High Efficiency Video Coding
  18. Format profile                           : Main [email protected]@High
  19. HDR format                               : SMPTE ST 2086, HDR10 compatible
  20. Codec ID                                 : V_MPEGH/ISO/HEVC
  21. Duration                                 : 2 h 25 min
  22. Bit rate                                 : 25.9 Mb/s
  23. Width                                    : 3 840 pixels
  24. Height                                   : 2 160 pixels
  25. Display aspect ratio                     : 16:9
  26. Frame rate mode                          : Constant
  27. Frame rate                               : 23.976 (24000/1001/53875) FPS
  28. Color space                              : YUV
  29. Chroma subsampling                       : 4:2:0 (Type 2)
  30. Bit depth                                : 10 bits
  31. Bits/(Pixel*Frame)                       : 0.130
  32. Stream size                              : 26.3 GiB (85%)
  33. Title                                    : HEVC, [email protected]@High, 24/1.001 fps @ 25931 kbps
  34. Writing library                          : x265 3.0_Au+4-dcbec33bfb0f:[Windows][GCC 8.2.1][64 bit] 10bit
  35. Encoding settings                        : cpuid=538751111039 / frame-threads=4 / numa-pools=12,12 / wpp / no-pmode / pme / no-psnr / no-ssim / log-level=2 / input-csp=1 / input-res=3840x2160 / interlace=0 / total-frames=209113 / level-idc=51 / high-tier=1 / uhd-bd=0 / ref=4 / no-allow-non-conformance / repeat-headers / annexb / no-aud / hrd / info / hash=0 / no-temporal-layers / no-open-gop / min-keyint=24 / keyint=240 / gop-lookahead=0 / bframes=8 / b-adapt=2 / b-pyramid / bframe-bias=0 / rc-lookahead=25 / lookahead-slices=0 / NTM4NzU=uuDQuD2mJt9fsCf / scenecut=40 / radl=0 / no-splice / no-intra-refresh / ctu=64 / min-cu-size=8 / no-rect / no-amp / max-tu-size=32 / tu-inter-depth=3 / tu-intra-depth=3 / limit-tu=4 / rdoq-level=2 / dynamic-rd=0.00 / no-ssim-rd / signhide / no-tskip / nr-intra=0 / nr-inter=0 / no-constrained-intra / no-strong-intra-smoothing / max-merge=4 / limit-refs=1 / limit-modes / me=3 / subme=4 / merange=25 / temporal-mvp / weightp / weightb / no-analyze-src-pics / deblock=-3:-3 / no-sao / no-sao-non-deblock / rd=6 / no-early-skip / rskip / no-fast-intra / no-tskip-fast / no-cu-lossless / b-intra / no-splitrd-skip / rdpenalty=0 / psy-rd=2.00 / psy-rdoq=1.00 / no-rd-refine / no-lossless / cbqpoffs=0 / crqpoffs=0 / rc=crf / crf=21.0 / qcomp=0.65 / qpstep=4 / stats-write=0 / stats-read=0 / vbv-maxrate=160000 / vbv-bufsize=160000 / vbv-init=0.9 / crf-max=0.0 / crf-min=0.0 / ipratio=1.30 / pbratio=1.20 / aq-mode=3 / aq-strength=0.85 / cutree / zone-count=0 / no-strict-cbr / qg-size=32 / no-rc-grain / qpmax=69 / qpmin=0 / no-const-vbv / sar=1 / overscan=0 / videoformat=5 / range=0 / colorprim=9 / transfer=16 / colormatrix=9 / chromaloc=1 / chromaloc-top=2 / chromaloc-bottom=2 / display-window=0 / master-display=G(13250,34500)B(7500,3000)R(34000,16000)WP(15635,16450)L(40000000,50) / max-cll=500,200 / min-luma=0 / max-luma=1023 / log2-max-poc-lsb=8 / vui-timing-info / vui-hrd-info / slices=1 / no-opt-qp-pps / no-opt-ref-list-length-pps / no-multi-pass-opt-rps / scenecut-bias=0.05 / no-opt-cu-delta-qp / no-aq-motion / hdr / hdr-opt / no-dhdr10-opt / no-idr-recovery-sei / analysis-reuse-level=5 / scale-factor=0 / refine-intra=0 / refine-inter=0 / refine-mv=0 / refine-ctu-distortion=0 / no-limit-sao / ctu-info=0 / no-lowpass-dct / refine-analysis-type=0 / copy-pic=1 / max-ausize-factor=1.0 / no-dynamic-refine / no-single-sei / no-hevc-aq / qp-adaptation-range=1.00
  36. Language                                 : English
  37. Default                                  : Yes
  38. Forced                                   : No
  39. Color range                              : Limited
  40. Color primaries                          : BT.2020
  41. Transfer characteristics                 : PQ
  42. Matrix coefficients                      : BT.2020 non-constant
  43. Mastering display color primaries        : Display P3
  44. Mastering display luminance              : min: 0.0050 cd/m2, max: 4000 cd/m2
  45. Maximum Content Light Level              : 500 cd/m2
  46. Maximum Frame-Average Light Level        : 200 cd/m2
  47. Audio #1
  48. ID                                       : 2
  49. Format                                   : DTS XLL
  50. Format/Info                              : Digital Theater Systems
  51. Commercial name                          : DTS-HD Master Audio
  52. Codec ID                                 : A_DTS
  53. Duration                                 : 2 h 25 min
  54. Bit rate mode                            : Variable
  55. Bit rate                                 : 4 000 kb/s
  56. Channel(s)                               : 6 channels
  57. Channel layout                           : C L R Ls Rs LFE
  58. Sampling rate                            : 48.0 kHz
  59. Frame rate                               : 93.750 FPS (512 SPF)
  60. Bit depth                                : 24 bits
  61. Compression mode                         : Lossless
  62. Stream size                              : 4.06 GiB (13%)
  63. Title                                    : English DTS-HD Master Audio 5.1 @ 4000 kbps
  64. Language                                 : English
  65. Default                                  : Yes
  66. Forced                                   : No
  67. Audio #2
  68. ID                                       : 3
  69. Format                                   : AC-3
  70. Format/Info                              : Audio Coding 3
  71. Commercial name                          : Dolby Digital
  72. Codec ID                                 : A_AC3
  73. Duration                                 : 2 h 25 min
  74. Bit rate mode                            : Constant
  75. Bit rate                                 : 192 kb/s
  76. Channel(s)                               : 2 channels
  77. Channel layout                           : L R
  78. Sampling rate                            : 48.0 kHz
  79. Frame rate                               : 31.250 FPS (1536 SPF)
  80. Compression mode                         : Lossy
  81. Stream size                              : 200 MiB (1%)
  82. Title                                    : English Dolby Digital Audio 2.0 @ 192 kbps  Commentary 1
  83. Language                                 : English
  84. Service kind                             : Complete Main
  85. Default                                  : No
  86. Forced                                   : No
  87. Audio #3
  88. ID                                       : 4
  89. Format                                   : AC-3
  90. Format/Info                              : Audio Coding 3
  91. Commercial name                          : Dolby Digital
  92. Codec ID                                 : A_AC3
  93. Duration                                 : 2 h 25 min
  94. Bit rate mode                            : Constant
  95. Bit rate                                 : 192 kb/s
  96. Channel(s)                               : 2 channels
  97. Channel layout                           : L R
  98. Sampling rate                            : 48.0 kHz
  99. Frame rate                               : 31.250 FPS (1536 SPF)
  100. Compression mode                         : Lossy
  101. Stream size                              : 200 MiB (1%)
  102. Title                                    : English Dolby Digital Audio 2.0 @ 192 kbps  Commentary 2
  103. Language                                 : English
  104. Service kind                             : Complete Main
  105. Default                                  : No
  106. Forced                                   : No
  107. Text #1
  108. ID                                       : 5
  109. Format                                   : PGS
  110. Codec ID                                 : S_HDMV/PGS
  111. Codec ID/Info                            : Picture based subtitle format used on BDs/HD-DVDs
  112. Duration                                 : 2 h 24 min
  113. Bit rate                                 : 50.9 kb/s
  114. Count of elements                        : 4388
  115. Stream size                              : 52.5 MiB (0%)
  116. Title                                    : Eng/SUP
  117. Language                                 : English
  118. Default                                  : No
  119. Forced                                   : No
  120. Text #2
  121. ID                                       : 6
  122. Format                                   : PGS
  123. Codec ID                                 : S_HDMV/PGS
  124. Codec ID/Info                            : Picture based subtitle format used on BDs/HD-DVDs
  125. Duration                                 : 2 h 24 min
  126. Bit rate                                 : 39.8 kb/s
  127. Count of elements                        : 3968
  128. Stream size                              : 41.1 MiB (0%)
  129. Title                                    : Chs/SUP  原盘简体
  130. Language                                 : Chinese
  131. Default                                  : Yes
  132. Forced                                   : No
  133. Text #3
  134. ID                                       : 7
  135. Format                                   : PGS
  136. Codec ID                                 : S_HDMV/PGS
  137. Codec ID/Info                            : Picture based subtitle format used on BDs/HD-DVDs
  138. Duration                                 : 2 h 24 min
  139. Bit rate                                 : 41.4 kb/s
  140. Count of elements                        : 4222
  141. Stream size                              : 42.9 MiB (0%)
  142. Title                                    : Cht/SUP  原盘繁体(TW)
  143. Language                                 : Chinese
  144. Default                                  : No
  145. Forced                                   : No
  146. Text #4
  147. ID                                       : 8
  148. Format                                   : PGS
  149. Codec ID                                 : S_HDMV/PGS
  150. Codec ID/Info                            : Picture based subtitle format used on BDs/HD-DVDs
  151. Duration                                 : 2 h 24 min
  152. Bit rate                                 : 39.2 kb/s
  153. Count of elements                        : 3960
  154. Stream size                              : 40.6 MiB (0%)
  155. Title                                    : 原盘繁体(HK)
  156. Language                                 : Chinese
  157. Default                                  : No
  158. Forced                                   : No
  159. Menu
  160. 00:00:00.000                             : en:绗?01 绔?
  161. 00:02:43.830                             : en:绗?02 绔?
  162. 00:05:49.516                             : en:绗?03 绔?
  163. 00:07:36.623                             : en:绗?04 绔?
  164. 00:09:08.548                             : en:绗?05 绔?
  165. 00:10:49.023                             : en:绗?06 绔?
  166. 00:13:28.599                             : en:绗?07 绔?
  167. 00:15:01.943                             : en:绗?08 绔?
  168. 00:16:38.581                             : en:绗?09 绔?
  169. 00:19:43.224                             : en:绗?10 绔?
  170. 00:23:46.467                             : en:绗?11 绔?
  171. 00:28:39.843                             : en:绗?12 绔?
  172. 00:31:32.766                             : en:绗?13 绔?
  173. 00:34:36.366                             : en:绗?14 绔?
  174. 00:35:43.558                             : en:绗?15 绔?
  175. 00:37:21.364                             : en:绗?16 绔?
  176. 00:41:27.694                             : en:绗?17 绔?
  177. 00:44:26.414                             : en:绗?18 绔?
  178. 00:48:56.142                             : en:绗?19 绔?
  179. 00:52:04.538                             : en:绗?20 绔?
  180. 00:57:07.507                             : en:绗?21 绔?
  181. 01:01:10.292                             : en:绗?22 绔?
  182. 01:03:46.322                             : en:绗?23 绔?
  183. 01:06:23.313                             : en:绗?24 绔?
  184. 01:07:43.518                             : en:绗?25 绔?
  185. 01:12:32.431                             : en:绗?26 绔?
  186. 01:15:43.289                             : en:绗?27 绔?
  187. 01:18:39.340                             : en:绗?28 绔?
  188. 01:20:02.923                             : en:绗?29 绔?
  189. 01:23:05.439                             : en:绗?30 绔?
  190. 01:25:37.924                             : en:绗?31 绔?
  191. 01:28:14.498                             : en:绗?32 绔?
  192. 01:30:29.758                             : en:绗?33 绔?
  193. 01:33:20.929                             : en:绗?34 绔?
  194. 01:37:52.492                             : en:绗?35 绔?
  195. 01:40:01.913                             : en:绗?36 绔?
  196. 01:42:51.582                             : en:绗?37 绔?
  197. 01:46:34.138                             : en:绗?38 绔?
  198. 01:49:14.256                             : en:绗?39 绔?
  199. 01:53:21.795                             : en:绗?40 绔?
  200. 02:03:56.220                             : en:绗?41 绔?
  201. 02:07:18.840                             : en:绗?42 绔?
  202. 02:09:29.845                             : en:绗?43 绔?
  203. 02:12:01.080                             : en:绗?44 绔?
  204. 02:15:02.219                             : en:绗?45 绔?
  205. 02:18:47.528                             : en:绗?46 绔?
  206. 02:20:33.008                             : en:绗?47 绔?
复制代码

















保举请利用qBittorrent,utorrent,transmission等标准BT软件下载!以获得最快速度。奉求保种!





回复

使用道具 举报

蓝光币
84
发表于 2022-7-28 08:47:53 | 显示全部楼层
66666666666666666666666666666
回复 支持 反对

使用道具 举报

蓝光币
1909
发表于 2022-7-28 15:09:08 | 显示全部楼层
太好啦&萬分感謝版主的無私發佈分享%
回复 支持 反对

使用道具 举报

蓝光币
6
发表于 2022-7-29 13:57:44 | 显示全部楼层

这东西我收了!谢谢楼主!蓝光电影网真好!
回复 支持 反对

使用道具 举报

懒得打字嘛,点击右侧快捷回复 【右侧内容,后台自定义】
您需要登录后才可以回帖 登录 | 立即加入

本版积分规则

Archiver|小黑屋| 蓝光电影网 |网站地图

Copyright © 2021 Comsenz Inc. Powered by 蓝光电影网

蓝光电影网

本站内容由用户自主分享和转载自互联网,转载目的在于传递更多信息,并不代表本网赞同其观点和对其真实性负责。

如有侵权、违反国家法律政策行为,请联系我们,我们会第一时间及时清除和处理!

举报反馈邮箱:[email protected]

快速回复 返回顶部 返回列表