找回密码

蓝光电影网

查看: 34|回复: 0

[剧情] 边境杀手[简繁英字幕].Sicario.2015.Bluray.1080p.x265.10bit.DDP.7.1-MiniHD 7.54GB

[复制链接]
蓝光币
7
发表于 2022-7-28 01:48:19 | 显示全部楼层 |阅读模式


◎标  题 边境杀手
◎译  名 毒裁者(港) / 怒火鸿沟(台) / 西卡里奥
◎片  名 Sicario
◎年  代 2015
◎产  地 美国 / 墨西哥 / 中国香港
◎类  别 剧情 / 惊悚 / 犯罪
◎语  言 英语 / 西班牙语
◎上映日期 2015-05-19(戛纳电影节) / 2015-10-02(美国)
◎IMDb评分 7.6/10 (403015人评价)
◎IMDb链接 https://www.imdb.com/title/tt3397884/
◎豆瓣评分 7.7/10 (117508人评价)
◎豆瓣链接 https://movie.douban.com/subject/25881247/
◎片  长 121分钟
◎导  演 丹尼斯·维伦纽瓦 Denis Villeneuve
◎编  剧 泰勒·谢里丹 Taylor Sheridan
       约翰·约翰逊 Jóhann Jóhannsson
◎演  员 艾米莉·布朗特 Emily Blunt
       本尼西奥·德尔·托罗 Benicio del Toro
       乔什·布洛林 Josh Brolin
       维克多·加博 Victor Garber
       乔·博恩瑟 Jon Bernthal
       丹尼尔·卡卢亚 Daniel Kaluuya
       杰弗里·多诺万 Jeffrey Donovan
       劳尔·特鲁希洛 Raoul Trujillo
       胡里奥·赛迪罗 Julio Cedillo
       汉克·罗杰森 Hank Rogerson
       马克斯米利亚诺·赫尔南德斯 Maximiliano Hernández
       艾伦·D·柏温 Alan D. Purwin
       迪兰·科宁 Dylan Kenin
       马修·佩奇 Matthew Page
       约翰·彼得·贝尔纳多 John Peter Bernardo
       洛拉·玛汀内斯-康宁安 Lora Martinez-Cunningham
       马蒂·林赛 Marty Lindsey
       亚历克斯·奈特 Alex Knight
       瑞欧·亚历山大 Rio Alexander
       萨拉·明妮奇 Sarah Minnich
       埃德加·阿雷拉 Edgar Arreola
◎标  签 犯罪 / 美国 / 行动 / 暴力 / 剧情 / 毒品 / 2015 / 悬疑
◎简  介
    在美国与墨西哥的鸿沟有一块灰色地带,那边是毒贩和杀手们的天堂,他们在此买卖火并,完全视法令为无物。凯特(艾米莉·布朗特 Emily Blunt 饰)是联邦观察局的捕快,心里怀揣着惩奸除恶的正义理想,她来到此地,加入了联邦政府特种军队,成为了马特(乔什·布洛林 Josh Brolin 饰)的手下。                                                                      亚历桑德罗(本尼西奥·德尔·托罗 Benicio Del Toro 饰)是已经卧底在毒枭身旁的前任奸细,马特找到了他,希望经历丰富的他可以成为行动小组的计谋顾问,但是亲历过天堂的亚历桑德罗完全不按常理出牌,他的所作所为经常刺激着凯特懦弱而又敏感的神经。随着观察的深入,灭亡的气味覆盖着行动组内的每一小我,一次又一次与死神擦肩而过,凯特的三观起头发生摆荡。
  1. ##### MediaInfo ######
  2. General
  3. Unique ID                                : 124246573967502512634165432826196593677 (0x5D79050CF845CA593E6D0DA8834B0C0D)
  4. Complete name                            : Sicario.2015.Bluray.1080p.x265.10bit.DDP.7.1-MiniHD.mkv
  5. Format                                   : Matroska
  6. Format version                           : Version 4
  7. File size                                : 7.54 GiB
  8. Duration                                 : 2 h 1 min
  9. Overall bit rate                         : 8 892 kb/s
  10. Movie name                               : Sicario [2015] Blueray 1080p - FRDS
  11. Encoded date                             : UTC 2021-03-21 03:19:10
  12. Writing application                      : mkvmerge v55.0.0 ('Waiting For Space') 64-bit
  13. Writing library                          : libebml v1.4.2 + libmatroska v1.6.4
  14. Cover                                    : Yes
  15. Attachments                              : cover.jpg
  16. Video
  17. ID                                       : 1
  18. Format                                   : HEVC
  19. Format/Info                              : High Efficiency Video Coding
  20. Format profile                           : Main [email protected]@High
  21. Codec ID                                 : V_MPEGH/ISO/HEVC
  22. Duration                                 : 2 h 1 min
  23. Bit rate                                 : 7 340 kb/s
  24. Width                                    : 1 920 pixels
  25. Height                                   : 800 pixels
  26. Display aspect ratio                     : 2.40:1
  27. Frame rate mode                          : Constant
  28. Frame rate                               : 23.976 (24000/1001/53875) FPS
  29. Color space                              : YUV
  30. Chroma subsampling                       : 4:2:0
  31. Bit depth                                : 10 bits
  32. Bits/(Pixel*Frame)                       : 0.199
  33. Stream size                              : 6.22 GiB (83%)
  34. Writing library                          : x265 3.4+33-606265ac7:[Windows][MSVC 1928][64 bit] 10bit
  35. Encoding settings                        : cpuid=538751111039 / frame-threads=3 / numa-pools=14 / wpp / pmode / no-pme / no-psnr / no-ssim / log-level=2 / input-csp=1 / input-res=1920x800 / interlace=0 / total-frames=174553 / level-idc=0 / high-tier=1 / uhd-bd=0 / ref=4 / no-allow-non-conformance / no-repeat-headers / annexb / no-aud / no-hrd / info / hash=0 / no-temporal-layers / no-open-gop / min-keyint=1 / keyint=250 / gop-lookahead=0 / bframes=6 / b-adapt=2 / b-pyramid / bframe-bias=0 / rc-lookahead=80 / lookahead-slices=0 / NTM4NzU=uuDQuD2mJt9fsCf / scenecut=40 / hist-scenecut=0 / radl=0 / no-splice / no-intra-refresh / ctu=32 / min-cu-size=8 / no-rect / no-amp / max-tu-size=32 / tu-inter-depth=4 / tu-intra-depth=4 / limit-tu=0 / rdoq-level=2 / dynamic-rd=0.00 / no-ssim-rd / signhide / no-tskip / nr-intra=0 / nr-inter=0 / no-constrained-intra / strong-intra-smoothing / max-merge=5 / limit-refs=0 / no-limit-modes / me=3 / subme=7 / merange=44 / temporal-mvp / no-frame-dup / no-hme / weightp / weightb / no-analyze-src-pics / deblock=-3:-3 / no-sao / no-sao-non-deblock / rd=4 / selective-sao=0 / no-early-skip / no-rskip / no-fast-intra / no-tskip-fast / no-cu-lossless / b-intra / no-splitrd-skip / rdpenalty=0 / psy-rd=1.50 / psy-rdoq=1.00 / no-rd-refine / no-lossless / cbqpoffs=-2 / crqpoffs=-2 / rc=crf / crf=17.0 / qcomp=0.65 / qpstep=4 / stats-write=0 / stats-read=0 / vbv-maxrate=160000 / vbv-bufsize=160000 / vbv-init=0.9 / min-vbv-fullness=50.0 / max-vbv-fullness=80.0 / crf-max=0.0 / crf-min=0.0 / ipratio=1.30 / pbratio=1.20 / aq-mode=2 / aq-strength=0.90 / no-cutree / zone-count=0 / no-strict-cbr / qg-size=8 / no-rc-grain / qpmax=69 / qpmin=0 / no-const-vbv / sar=0 / overscan=0 / videoformat=5 / range=0 / colorprim=1 / transfer=1 / colormatrix=1 / chromaloc=0 / display-window=0 / cll=0,0 / min-luma=0 / max-luma=1023 / log2-max-poc-lsb=8 / vui-timing-info / vui-hrd-info / slices=1 / no-opt-qp-pps / no-opt-ref-list-length-pps / no-multi-pass-opt-rps / scenecut-bias=0.05 / hist-threshold=0.03 / no-opt-cu-delta-qp / no-aq-motion / no-hdr10 / no-hdr10-opt / no-dhdr10-opt / no-idr-recovery-sei / analysis-reuse-level=0 / analysis-save-reuse-level=0 / analysis-load-reuse-level=0 / scale-factor=0 / refine-intra=0 / refine-inter=0 / refine-mv=1 / refine-ctu-distortion=0 / no-limit-sao / ctu-info=0 / no-lowpass-dct / refine-analysis-type=0 / copy-pic=1 / max-ausize-factor=1.0 / no-dynamic-refine / no-single-sei / no-hevc-aq / no-svt / no-field / qp-adaptation-range=1.00 / scenecut-aware-qp=0conformance-window-offsets / right=0 / bottom=0 / NTM4NzU= / decoder-max-rate=0 / no-vbv-live-multi-pass
  36. Default                                  : Yes
  37. Forced                                   : No
  38. Color range                              : Limited
  39. Color primaries                          : BT.709
  40. Transfer characteristics                 : BT.709
  41. Matrix coefficients                      : BT.709
  42. Audio
  43. ID                                       : 2
  44. Format                                   : E-AC-3
  45. Format/Info                              : Enhanced AC-3
  46. Commercial name                          : Dolby Digital Plus
  47. Codec ID                                 : A_EAC3
  48. Duration                                 : 2 h 1 min
  49. Bit rate mode                            : Constant
  50. Bit rate                                 : 1 533 kb/s
  51. Channel(s)                               : 8 channels
  52. Channel layout                           : L R C LFE Ls Rs Lb Rb
  53. Sampling rate                            : 48.0 kHz
  54. Frame rate                               : 187.500 FPS (256 SPF)
  55. Compression mode                         : Lossy
  56. Stream size                              : 1.30 GiB (17%)
  57. Language                                 : English
  58. Service kind                             : Complete Main
  59. Default                                  : Yes
  60. Forced                                   : No
  61. Text #1
  62. ID                                       : 3
  63. ID in the original source medium         : 4608 (0x1200)
  64. Format                                   : PGS
  65. Muxing mode                              : zlib
  66. Codec ID                                 : S_HDMV/PGS
  67. Codec ID/Info                            : Picture based subtitle format used on BDs/HD-DVDs
  68. Duration                                 : 1 h 50 min
  69. Bit rate                                 : 23.9 kb/s
  70. Count of elements                        : 1882
  71. Stream size                              : 18.9 MiB (0%)
  72. Language                                 : English
  73. Default                                  : No
  74. Forced                                   : No
  75. Original source medium                   : Blu-ray
  76. Text #2
  77. ID                                       : 4
  78. ID in the original source medium         : 4609 (0x1201)
  79. Format                                   : PGS
  80. Muxing mode                              : zlib
  81. Codec ID                                 : S_HDMV/PGS
  82. Codec ID/Info                            : Picture based subtitle format used on BDs/HD-DVDs
  83. Duration                                 : 1 h 53 min
  84. Bit rate                                 : 29.9 kb/s
  85. Count of elements                        : 2495
  86. Stream size                              : 24.3 MiB (0%)
  87. Language                                 : English
  88. Default                                  : No
  89. Forced                                   : No
  90. Original source medium                   : Blu-ray
  91. Text #3
  92. ID                                       : 5
  93. Format                                   : UTF-8
  94. Codec ID                                 : S_TEXT/UTF8
  95. Codec ID/Info                            : UTF-8 Plain Text
  96. Duration                                 : 1 h 50 min
  97. Bit rate                                 : 36 b/s
  98. Count of elements                        : 956
  99. Stream size                              : 29.9 KiB (0%)
  100. Language                                 : English
  101. Default                                  : No
  102. Forced                                   : No
  103. Text #4
  104. ID                                       : 6
  105. Format                                   : UTF-8
  106. Codec ID                                 : S_TEXT/UTF8
  107. Codec ID/Info                            : UTF-8 Plain Text
  108. Duration                                 : 1 h 50 min
  109. Bit rate                                 : 31 b/s
  110. Count of elements                        : 956
  111. Stream size                              : 25.9 KiB (0%)
  112. Title                                    : chs
  113. Language                                 : Chinese
  114. Default                                  : No
  115. Forced                                   : No
  116. Text #5
  117. ID                                       : 7
  118. Format                                   : UTF-8
  119. Codec ID                                 : S_TEXT/UTF8
  120. Codec ID/Info                            : UTF-8 Plain Text
  121. Duration                                 : 1 h 50 min
  122. Bit rate                                 : 31 b/s
  123. Count of elements                        : 956
  124. Stream size                              : 25.9 KiB (0%)
  125. Title                                    : cht
  126. Language                                 : Chinese
  127. Default                                  : No
  128. Forced                                   : No
  129. Text #6
  130. ID                                       : 8
  131. Format                                   : ASS
  132. Codec ID                                 : S_TEXT/ASS
  133. Codec ID/Info                            : Advanced Sub Station Alpha
  134. Duration                                 : 1 h 54 min
  135. Bit rate                                 : 159 b/s
  136. Count of elements                        : 1109
  137. Compression mode                         : Lossless
  138. Stream size                              : 134 KiB (0%)
  139. Title                                    : chs&eng
  140. Language                                 : Chinese
  141. Default                                  : No
  142. Forced                                   : No
  143. Text #7
  144. ID                                       : 9
  145. Format                                   : ASS
  146. Codec ID                                 : S_TEXT/ASS
  147. Codec ID/Info                            : Advanced Sub Station Alpha
  148. Duration                                 : 1 h 54 min
  149. Bit rate                                 : 159 b/s
  150. Count of elements                        : 1109
  151. Compression mode                         : Lossless
  152. Stream size                              : 134 KiB (0%)
  153. Title                                    : cht&eng
  154. Language                                 : Chinese
  155. Default                                  : Yes
  156. Forced                                   : No
  157. Menu
  158. 00:00:00.000                             : en:CHAPTER:01
  159. 00:07:14.350                             : en:CHAPTER:02
  160. 00:12:55.107                             : en:CHAPTER:03
  161. 00:20:04.369                             : en:CHAPTER:04
  162. 00:25:24.814                             : en:CHAPTER:05
  163. 00:32:11.596                             : en:CHAPTER:06
  164. 00:39:24.820                             : en:CHAPTER:07
  165. 00:46:15.314                             : en:CHAPTER:08
  166. 00:53:24.576                             : en:CHAPTER:09
  167. 01:01:40.321                             : en:CHAPTER:10
  168. 01:10:49.119                             : en:CHAPTER:11
  169. 01:18:02.886                             : en:CHAPTER:12
  170. 01:30:59.370                             : en:CHAPTER:13
  171. 01:36:57.770                             : en:CHAPTER:14
  172. 01:47:42.038                             : en:CHAPTER:15
  173. 01:54:12.804                             : en:CHAPTER:16
复制代码



保举请利用qBittorrent,utorrent,transmission等标准BT软件下载!以获得最快速度。奉求保种!





回复

使用道具 举报

懒得打字嘛,点击右侧快捷回复 【右侧内容,后台自定义】
您需要登录后才可以回帖 登录 | 立即加入

本版积分规则

Archiver|小黑屋| 蓝光电影网 |网站地图

Copyright © 2021 Comsenz Inc. Powered by 蓝光电影网

蓝光电影网

本站内容由用户自主分享和转载自互联网,转载目的在于传递更多信息,并不代表本网赞同其观点和对其真实性负责。

如有侵权、违反国家法律政策行为,请联系我们,我们会第一时间及时清除和处理!

举报反馈邮箱:[email protected]

快速回复 返回顶部 返回列表