找回密码

蓝光电影网

查看: 32|回复: 0

[剧情] 觅踪寻迹[中文字幕].Foot.Fairy.2020.1080p.NF.WEB-DL.x264.DDP5.1-MOMOWEB 5.49GB

[复制链接]
蓝光币
7
发表于 2022-7-28 01:48:53 | 显示全部楼层 |阅读模式


◎标  题 觅踪寻迹
◎译  名 觅踪寻迹(台)
◎片  名 Foot Fairy
◎年  代 2020
◎产  地 印度
◎类  别 惊悚 / 犯罪
◎语  言 印地语
◎上映日期 2020-10-24(印度)
◎IMDb评分 4.7/10 (618人评价)
◎IMDb链接 https://www.imdb.com/title/tt13130532/
◎豆瓣链接 https://movie.douban.com/subject/36012322/
◎片  长 115分钟
◎演  员 Sagarika Ghatge Sagarika Ghatge
◎简  介
  一个恋足癖连环杀手起头持续不断攻击女性,一位警探决心不捉住罪犯誓不罢休。
  1. ##### MediaInfo ######
  2. General
  3. Unique ID                                : 136983551582060564626799049359681621537 (0x670E128805CA1F0027B11FA570DB8E21)
  4. Complete name                            : 足戮.Foot.Fairy.2020.1080p.NF.WEB-DL.x264.DDP5.1-MOMOWEB.mkv
  5. Format                                   : Matroska
  6. Format version                           : Version 4
  7. File size                                : 5.49 GiB
  8. Duration                                 : 1 h 54 min
  9. Overall bit rate mode                    : Variable
  10. Overall bit rate                         : 6 860 kb/s
  11. Movie name                               : 足戮
  12. Encoded date                             : UTC 2022-07-26 06:48:28
  13. Writing application                      : mkvmerge v68.0.0 ('The Curtain') 32-bit
  14. Writing library                          : libebml v1.4.2 + libmatroska v1.6.4
  15. Video
  16. ID                                       : 1
  17. Format                                   : AVC
  18. Format/Info                              : Advanced Video Codec
  19. Format profile                           : [email protected]
  20. Format settings                          : CABAC / 4 Ref Frames
  21. Format settings, CABAC                   : Yes
  22. Format settings, Reference frames        : 4 frames
  23. Codec ID                                 : V_MPEG4/ISO/AVC
  24. Duration                                 : 1 h 54 min
  25. Bit rate mode                            : Variable
  26. Bit rate                                 : 6 218 kb/s
  27. Maximum bit rate                         : 20.0 Mb/s
  28. Width                                    : 1 920 pixels
  29. Height                                   : 1 080 pixels
  30. Display aspect ratio                     : 16:9
  31. Frame rate mode                          : Constant
  32. Frame rate                               : 24.000 FPS
  33. Color space                              : YUV
  34. Chroma subsampling                       : 4:2:0
  35. Bit depth                                : 8 bits
  36. Scan type                                : Progressive
  37. Bits/(Pixel*Frame)                       : 0.125
  38. Stream size                              : 4.97 GiB (91%)
  39. Writing library                          : x264 core 148 r2722 1b0121b
  40. Encoding settings                        : cabac=1 / ref=4 / deblock=1:0:0 / analyse=0x3:0x111 / me=umh / subme=10 / psy=1 / psy_rd=1.00:0.00 / mixed_ref=1 / me_range=120 / chroma_me=1 / trellis=2 / 8x8dct=1 / cqm=0 / deadzone=21,11 / fast_pskip=1 / chroma_qp_offset=-2 / threads=8 / lookahead_threads=2 / sliced_threads=0 / nr=0 / decimate=1 / interlaced=0 / NTM4NzU= / bluray_compat=0 / stitchable=1 / constrained_intra=0 / bframes=16 / b_pyramid=2 / b_adapt=2 / b_bias=0 / direct=3 / weightb=1 / open_gop=0 / weightp=2 / keyint=240 / keyint_min=121 / scenecut=0 / intra_refresh=0 / rc_lookahead=240 / rc=crf / mbtree=1 / crf=16.0 / qcomp=0.50 / qpmin=6 / qpmax=51 / qpstep=4 / vbv_maxrate=20000 / vbv_bufsize=25000 / crf_max=0.0 / nal_hrd=vbr / filler=0 / NTM4NzU=LmsMAP37EqsCpk / ip_ratio=1.40 / aq=1:0.80
  41. Default                                  : Yes
  42. Forced                                   : No
  43. Audio
  44. ID                                       : 2
  45. Format                                   : E-AC-3
  46. Format/Info                              : Enhanced AC-3
  47. Commercial name                          : Dolby Digital Plus
  48. Codec ID                                 : A_EAC3
  49. Duration                                 : 1 h 54 min
  50. Bit rate mode                            : Constant
  51. Bit rate                                 : 640 kb/s
  52. Channel(s)                               : 6 channels
  53. Channel layout                           : L R C LFE Ls Rs
  54. Sampling rate                            : 48.0 kHz
  55. Frame rate                               : 31.250 FPS (1536 SPF)
  56. Compression mode                         : Lossy
  57. Stream size                              : 524 MiB (9%)
  58. Language                                 : Hindi
  59. Service kind                             : Complete Main
  60. Default                                  : Yes
  61. Forced                                   : No
  62. Text #1
  63. ID                                       : 3
  64. Format                                   : UTF-8
  65. Codec ID                                 : S_TEXT/UTF8
  66. Codec ID/Info                            : UTF-8 Plain Text
  67. Duration                                 : 1 h 53 min
  68. Bit rate                                 : 60 b/s
  69. Count of elements                        : 1770
  70. Stream size                              : 50.3 KiB (0%)
  71. Language                                 : English
  72. Default                                  : Yes
  73. Forced                                   : No
  74. Text #2
  75. ID                                       : 4
  76. Format                                   : UTF-8
  77. Codec ID                                 : S_TEXT/UTF8
  78. Codec ID/Info                            : UTF-8 Plain Text
  79. Duration                                 : 1 h 50 min
  80. Bit rate                                 : 187 b/s
  81. Count of elements                        : 1539
  82. Stream size                              : 152 KiB (0%)
  83. Language                                 : Hindi
  84. Default                                  : No
  85. Forced                                   : No
  86. Text #3
  87. ID                                       : 5
  88. Format                                   : UTF-8
  89. Codec ID                                 : S_TEXT/UTF8
  90. Codec ID/Info                            : UTF-8 Plain Text
  91. Duration                                 : 1 h 53 min
  92. Bit rate                                 : 52 b/s
  93. Count of elements                        : 1696
  94. Stream size                              : 43.8 KiB (0%)
  95. Language                                 : Chinese
  96. Default                                  : No
  97. Forced                                   : No
  98. Text #4
  99. ID                                       : 6
  100. Format                                   : UTF-8
  101. Codec ID                                 : S_TEXT/UTF8
  102. Codec ID/Info                            : UTF-8 Plain Text
  103. Duration                                 : 1 h 53 min
  104. Bit rate                                 : 48 b/s
  105. Count of elements                        : 1625
  106. Stream size                              : 40.2 KiB (0%)
  107. Language                                 : Chinese
  108. Default                                  : No
  109. Forced                                   : No
复制代码

















保举请利用qBittorrent,utorrent,transmission等标准BT软件下载!以获得最快速度。奉求保种!





回复

使用道具 举报

懒得打字嘛,点击右侧快捷回复 【右侧内容,后台自定义】
您需要登录后才可以回帖 登录 | 立即加入

本版积分规则

Archiver|小黑屋| 蓝光电影网 |网站地图

Copyright © 2021 Comsenz Inc. Powered by 蓝光电影网

蓝光电影网

本站内容由用户自主分享和转载自互联网,转载目的在于传递更多信息,并不代表本网赞同其观点和对其真实性负责。

如有侵权、违反国家法律政策行为,请联系我们,我们会第一时间及时清除和处理!

举报反馈邮箱:[email protected]

快速回复 返回顶部 返回列表