找回密码

蓝光电影网

查看: 44|回复: 0

[剧情] 双面狐[国语音轨/简繁英字幕].Double.Faced.Fox.2020.1080p.WEB-DL.H264.AAC-MOMOWEB 0.94GB

[复制链接]
蓝光币
8
发表于 2022-7-28 01:48:55 | 显示全部楼层 |阅读模式


◎标  题 双面狐
◎译  名 将军请上榻 / 美色倾国:将军请上榻
◎年  代 2020
◎产  地 中国大陆
◎类  别 剧情 / 恋爱 / 奇异
◎语  言 汉语普通话
◎上映日期 2020-08-30(中国大陆)
◎IMDb评分 5/10 (7人评价)
◎IMDb链接 https://www.imdb.com/title/tt13099026/
◎豆瓣链接 https://movie.douban.com/subject/35153497/
◎片  长 68分钟
◎导  演 文卓 Zhuo Wen
◎演  员 文卓 Zhuo Wen
       金尤美 Youmei Jin
       文梦洋 Mengyang Wen
       袁志颖 Zhiying Yuan
       杨俊婷 Junting Yang
◎简  介
  云盛皇朝妖魅反叛,天子临终将盛宁公主下嫁伏龙上将军白奕。白奕入住公主府,要与公主而寝,公主向太后请求悔婚遭拒绝。经太医检验,天子死于缓慢衰老,白奕从中看出眉目。表姐别矜色诱白奕自讨没趣,白奕专心观察天子死因。公主与瑞王私奔被白奕守个正着,因而以自杀威胁白奕搬出卧房。公主被妖帮刺伤,关键时辰白奕赶到杀死刺客首领解救公主,两人关系缓和。回府后公主发现自己对白奕芳心暗许,便自动请将军上榻,白奕遭到撩拨但终极避开。尾火虎挟持公主,众人发现别矜竟是杀死天子的心月狐。混战中,降妖师钟知杨赶到收服别矜,白奕杀死尾火虎却死在公主怀中。公主抱着白奕的骨灰轻生,不想被一少侠救下,对朴直是白奕从小失联的弟弟。
  1. ##### MediaInfo ######
  2. General
  3. Unique ID                                : 144922128514917831256200231346726311417 (0x6D06FC97CA12549F76F0FFEDE8E515F9)
  4. Complete name                            : Double.Faced.Fox.2020.1080p.WEB-DL.H264.AAC-MOMOWEB.mkv
  5. Format                                   : Matroska
  6. Format version                           : Version 4
  7. File size                                : 964 MiB
  8. Duration                                 : 1 h 7 min
  9. Overall bit rate                         : 2 003 kb/s
  10. Encoded date                             : UTC 2021-07-26 04:12:56
  11. Writing application                      : mkvmerge v58.0.0 ('Supper's Ready') 64-bit
  12. Writing library                          : libebml v1.4.2 + libmatroska v1.6.4
  13. Video
  14. ID                                       : 1
  15. Format                                   : AVC
  16. Format/Info                              : Advanced Video Codec
  17. Format profile                           : [email protected]
  18. Format settings                          : CABAC / 3 Ref Frames
  19. Format settings, CABAC                   : Yes
  20. Format settings, Reference frames        : 3 frames
  21. Codec ID                                 : V_MPEG4/ISO/AVC
  22. Duration                                 : 1 h 7 min
  23. Bit rate                                 : 1 875 kb/s
  24. Width                                    : 1 920 pixels
  25. Height                                   : 800 pixels
  26. Display aspect ratio                     : 2.40:1
  27. Frame rate mode                          : Constant
  28. Frame rate                               : 25.000 FPS
  29. Color space                              : YUV
  30. Chroma subsampling                       : 4:2:0
  31. Bit depth                                : 8 bits
  32. Scan type                                : Progressive
  33. Bits/(Pixel*Frame)                       : 0.049
  34. Stream size                              : 903 MiB (94%)
  35. Writing library                          : qiyi.com vtc-test
  36. Language                                 : Chinese
  37. Default                                  : Yes
  38. Forced                                   : No
  39. Color range                              : Limited
  40. Color primaries                          : BT.709
  41. Transfer characteristics                 : BT.709
  42. Matrix coefficients                      : BT.709
  43. Audio
  44. ID                                       : 2
  45. Format                                   : AAC LC
  46. Format/Info                              : Advanced Audio Codec Low Complexity
  47. Codec ID                                 : A_AAC-2
  48. Duration                                 : 1 h 7 min
  49. Bit rate                                 : 125 kb/s
  50. Channel(s)                               : 2 channels
  51. Channel layout                           : L R
  52. Sampling rate                            : 44.1 kHz
  53. Frame rate                               : 43.066 FPS (1024 SPF)
  54. Compression mode                         : Lossy
  55. Stream size                              : 60.0 MiB (6%)
  56. Language                                 : Chinese
  57. Default                                  : Yes
  58. Forced                                   : No
  59. Text #1
  60. ID                                       : 3
  61. Format                                   : UTF-8
  62. Codec ID                                 : S_TEXT/UTF8
  63. Codec ID/Info                            : UTF-8 Plain Text
  64. Duration                                 : 1 h 6 min
  65. Bit rate                                 : 30 b/s
  66. Count of elements                        : 717
  67. Stream size                              : 14.5 KiB (0%)
  68. Title                                    : Simplified Chinese
  69. Language                                 : Chinese
  70. Default                                  : Yes
  71. Forced                                   : No
  72. Text #2
  73. ID                                       : 4
  74. Format                                   : UTF-8
  75. Codec ID                                 : S_TEXT/UTF8
  76. Codec ID/Info                            : UTF-8 Plain Text
  77. Duration                                 : 1 h 6 min
  78. Bit rate                                 : 30 b/s
  79. Count of elements                        : 717
  80. Stream size                              : 14.5 KiB (0%)
  81. Title                                    : Traditional Chinese
  82. Language                                 : Chinese
  83. Default                                  : No
  84. Forced                                   : No
  85. Text #3
  86. ID                                       : 5
  87. Format                                   : UTF-8
  88. Codec ID                                 : S_TEXT/UTF8
  89. Codec ID/Info                            : UTF-8 Plain Text
  90. Duration                                 : 1 h 3 min
  91. Bit rate                                 : 39 b/s
  92. Count of elements                        : 671
  93. Stream size                              : 18.3 KiB (0%)
  94. Title                                    : English
  95. Language                                 : English
  96. Default                                  : No
  97. Forced                                   : No
  98. Text #4
  99. ID                                       : 6
  100. Format                                   : UTF-8
  101. Codec ID                                 : S_TEXT/UTF8
  102. Codec ID/Info                            : UTF-8 Plain Text
  103. Duration                                 : 1 h 6 min
  104. Bit rate                                 : 71 b/s
  105. Count of elements                        : 717
  106. Stream size                              : 34.8 KiB (0%)
  107. Title                                    : Arabic
  108. Language                                 : Arabic
  109. Default                                  : No
  110. Forced                                   : No
  111. Text #5
  112. ID                                       : 7
  113. Format                                   : UTF-8
  114. Codec ID                                 : S_TEXT/UTF8
  115. Codec ID/Info                            : UTF-8 Plain Text
  116. Duration                                 : 1 h 3 min
  117. Bit rate                                 : 36 b/s
  118. Count of elements                        : 697
  119. Stream size                              : 17.0 KiB (0%)
  120. Title                                    : Indonesian
  121. Language                                 : Indonesian
  122. Default                                  : No
  123. Forced                                   : No
  124. Text #6
  125. ID                                       : 8
  126. Format                                   : UTF-8
  127. Codec ID                                 : S_TEXT/UTF8
  128. Codec ID/Info                            : UTF-8 Plain Text
  129. Duration                                 : 1 h 3 min
  130. Bit rate                                 : 41 b/s
  131. Count of elements                        : 668
  132. Stream size                              : 19.3 KiB (0%)
  133. Title                                    : Korean
  134. Language                                 : Korean
  135. Default                                  : No
  136. Forced                                   : No
  137. Text #7
  138. ID                                       : 9
  139. Format                                   : UTF-8
  140. Codec ID                                 : S_TEXT/UTF8
  141. Codec ID/Info                            : UTF-8 Plain Text
  142. Duration                                 : 1 h 3 min
  143. Bit rate                                 : 40 b/s
  144. Count of elements                        : 666
  145. Stream size                              : 18.7 KiB (0%)
  146. Title                                    : Malay
  147. Language                                 : Malay
  148. Default                                  : No
  149. Forced                                   : No
  150. Text #8
  151. ID                                       : 10
  152. Format                                   : UTF-8
  153. Codec ID                                 : S_TEXT/UTF8
  154. Codec ID/Info                            : UTF-8 Plain Text
  155. Duration                                 : 1 h 3 min
  156. Bit rate                                 : 42 b/s
  157. Count of elements                        : 689
  158. Stream size                              : 19.9 KiB (0%)
  159. Title                                    : Spanish
  160. Language                                 : Spanish
  161. Default                                  : No
  162. Forced                                   : No
  163. Text #9
  164. ID                                       : 11
  165. Format                                   : UTF-8
  166. Codec ID                                 : S_TEXT/UTF8
  167. Codec ID/Info                            : UTF-8 Plain Text
  168. Duration                                 : 1 h 2 min
  169. Bit rate                                 : 94 b/s
  170. Count of elements                        : 664
  171. Stream size                              : 43.1 KiB (0%)
  172. Title                                    : Thai
  173. Language                                 : Thai
  174. Default                                  : No
  175. Forced                                   : No
  176. Text #10
  177. ID                                       : 12
  178. Format                                   : UTF-8
  179. Codec ID                                 : S_TEXT/UTF8
  180. Codec ID/Info                            : UTF-8 Plain Text
  181. Duration                                 : 1 h 3 min
  182. Bit rate                                 : 55 b/s
  183. Count of elements                        : 689
  184. Stream size                              : 25.8 KiB (0%)
  185. Title                                    : Vietnamese
  186. Language                                 : Vietnamese
  187. Default                                  : No
  188. Forced                                   : No
复制代码

















保举请利用qBittorrent,utorrent,transmission等标准BT软件下载!以获得最快速度。奉求保种!





回复

使用道具 举报

懒得打字嘛,点击右侧快捷回复 【右侧内容,后台自定义】
您需要登录后才可以回帖 登录 | 立即加入

本版积分规则

Archiver|小黑屋| 蓝光电影网 |网站地图

Copyright © 2021 Comsenz Inc. Powered by 蓝光电影网

蓝光电影网

本站内容由用户自主分享和转载自互联网,转载目的在于传递更多信息,并不代表本网赞同其观点和对其真实性负责。

如有侵权、违反国家法律政策行为,请联系我们,我们会第一时间及时清除和处理!

举报反馈邮箱:[email protected]

快速回复 返回顶部 返回列表