找回密码

蓝光电影网

查看: 45|回复: 0

[剧情] 2020去死[简英字幕].Death.to.2020.2020.Webrip.1080p.x265.10bit-MiniHD 2.68GB

[复制链接]
蓝光币
8
发表于 2022-7-28 01:48:56 | 显示全部楼层 |阅读模式


◎标  题 2020去死
◎译  名 死于2020 / 再也不见2020
◎片  名 Death to 2020
◎年  代 2020
◎产  地 美国
◎类  别 笑剧
◎语  言 英语
◎上映日期 2020-12-27(美国收集)
◎IMDb评分 6.8/10 (35614人评价)
◎IMDb链接 https://www.imdb.com/title/tt13567480/
◎豆瓣评分 7.2/10 (16971人评价)
◎豆瓣链接 https://movie.douban.com/subject/35275115/
◎片  长 70分钟
◎导  演 阿尔·坎贝尔 Al Cambell
       查理·布鲁克 Charlie Brooker
◎编  剧 查理·布鲁克 Charlie Brooker
       安娜贝尔·琼斯 Annabel Jones
       艾伦·康纳 Alan Connor
◎演  员 塞缪尔·杰克逊 Samuel L. Jackson
       休·格兰特 Hugh Grant
       丽莎·库卓 Lisa Kudrow
       库梅尔·南贾尼 Kumail Nanjiani
       崔茜·尤玛 Tracey Ullman
       萨姆森·卡约 Samson Kayo
       莱斯莉·琼斯 Leslie Jones
       戴安·摩根 Diane Morgan
       克里斯汀·米利欧缇 Cristin Milioti
       乔·基瑞 Joe Keery
       劳伦斯·菲什伯恩 Laurence Fishburne
       莉莉·沙利文 Lily Sullivan
       查理·布鲁克 Charlie Brooker
◎标  签 笑剧 / Netflix / 美国 / 2020 / 伪究竟 / 黑镜 / 美剧 / 2021
◎简  介
  2020:如此[insert dire adjective of choice here]的一年,就连《黑镜》的创作团队也编不出这样的故事,但这并不意味着他们没有可发挥的余地。《再也不见 2020》是一部笑剧,回首了这可怕的一年,也许一切尚未竣事?在这部具有里程碑意义的记载片式特辑中,一些全球最著名的人物(虚拟)采访连系曩昔 12 个月的实在影象,交汇成一部叙事独唱曲。
  1. ##### MediaInfo ######
  2. General
  3. Unique ID                                : 53604804867640577112129451178227815874 (0x2853E8EE45F873C161E50EAE606655C2)
  4. Complete name                            : Death.to.2020.2020.Webrip.1080p.x265.10bit-MiniHD.mkv
  5. Format                                   : Matroska
  6. Format version                           : Version 4
  7. File size                                : 2.68 GiB
  8. Duration                                 : 1 h 10 min
  9. Overall bit rate                         : 5 410 kb/s
  10. Encoded date                             : UTC 2021-01-06 00:55:40
  11. Writing application                      : mkvmerge v42.0.0 ('Overtime') 64-bit
  12. Writing library                          : libebml v1.3.10 + libmatroska v1.5.2
  13. Video
  14. ID                                       : 1
  15. Format                                   : HEVC
  16. Format/Info                              : High Efficiency Video Coding
  17. Format profile                           : Main [email protected]@High
  18. Codec ID                                 : V_MPEGH/ISO/HEVC
  19. Duration                                 : 1 h 10 min
  20. Bit rate                                 : 4 768 kb/s
  21. Width                                    : 1 920 pixels
  22. Height                                   : 960 pixels
  23. Display aspect ratio                     : 2.000
  24. Frame rate mode                          : Constant
  25. Frame rate                               : 24.000 FPS
  26. Color space                              : YUV
  27. Chroma subsampling                       : 4:2:0
  28. Bit depth                                : 10 bits
  29. Bits/(Pixel*Frame)                       : 0.108
  30. Stream size                              : 2.36 GiB (88%)
  31. Writing library                          : x265 3.4+1-g07e3381df+31:[Windows][GCC 10.1.0][64 bit] Yuuki 10bit+8bit+12bit
  32. Encoding settings                        : rc=crf / crf=20.5000 / qcomp=0.65 / qpstep=4 / stats-write=0 / stats-read=0 / vbv-maxrate=36000 / vbv-bufsize=42000 / vbv-init=0.9 / crf-max=0.0 / crf-min=0.0 / no-lossless / no-cu-lossless / aq-mode=2 / aq-strength=0.65 / cbqpoffs=-3 / crqpoffs=-3 / ipratio=1.40 / pbratio=1.20 / psy-rd=1.80 / psy-rdoq=0.80 / deblock=-1:-1 / ref=5 / limit-refs=1 / limit-modes / bframes=8 / b-adapt=2 / bframe-bias=0 / b-pyramid / b-intra / weightp / weightb / min-keyint=24 / max-keyint=360 / rc-lookahead=60 / gop-lookahead=0 / NTM4NzU=uuDQuD2mJt9fsCf / scenecut=40 / hist-scenecut=0 / radl=0 / max-cu-size=32 / min-cu-size=8 / me=3 / subme=4 / merange=25 / rdoq-level=1 / rd=3 / rdpenalty=1 / dynamic-rd=0.00 / no-rd-refine / ----- / cutree / no-sao / no-rect / no-amp / no-open-gop / wpp / no-pmode / no-pme / no-psnr / no-ssim / nr-intra=0 / nr-inter=0 / no-constrained-intra / no-strong-intra-smoothing / max-tu-size=32 / tu-inter-depth=2 / tu-intra-depth=2 / limit-tu=4 / qg-size=32 / qpmax=69 / qpmin=0 / ----- / cpuid=538751111039 / frame-threads=3 / numa-pools=12 / log-level=2 / csv / csv-log-level=0 / input-csp=1 / input-res=1920x960 / interlace=0 / level-idc=0 / high-tier=1 / uhd-bd=0 / no-allow-non-conformance / no-repeat-headers / no-aud / no-hrd / info / hash=0 / no-temporal-layers / lookahead-slices=0 / no-splice / no-intra-refresh / no-ssim-rd / signhide / no-tskip / max-merge=5 / temporal-mvp / no-frame-dup / no-hme / no-analyze-src-pics / no-sao-non-deblock / selective-sao=0 / no-early-skip / rskip / no-fast-intra / no-tskip-fast / no-splitrd-skip / zone-count=0 / no-strict-cbr / no-rc-grain / no-const-vbv / sar=0 / overscan=0 / videoformat=5 / range=0 / colorprim=1 / transfer=1 / colormatrix=1 / chromaloc=0 / display-window=0 / cll=0,0 / min-luma=0 / max-luma=1023 / log2-max-poc-lsb=8 / vui-timing-info / vui-hrd-info / slices=1 / no-opt-qp-pps / no-opt-ref-list-length-pps / no-multi-pass-opt-rps / scenecut-bias=0.05 / hist-threshold=0.01 / no-opt-cu-delta-qp / no-aq-motion / no-hdr10 / no-hdr10-opt / no-dhdr10-opt / no-idr-recovery-sei / analysis-reuse-level=0 / analysis-save-reuse-level=0 / analysis-load-reuse-level=0 / scale-factor=0 / refine-intra=0 / refine-inter=0 / refine-mv=1 / refine-ctu-distortion=0 / no-limit-sao / ctu-info=0 / no-lowpass-dct / refine-analysis-type=0 / copy-pic=1 / max-ausize-factor=1.0 / no-dynamic-refine / no-single-sei / no-hevc-aq / no-svt / no-field / qp-adaptation-range=1.00 / no-scenecut-aware-qpconformance-window-offsets / right=0 / bottom=0 / NTM4NzU= / decoder-max-rate=0
  33. Default                                  : Yes
  34. Forced                                   : No
  35. Color range                              : Limited
  36. Color primaries                          : BT.709
  37. Transfer characteristics                 : BT.709
  38. Matrix coefficients                      : BT.709
  39. Audio
  40. ID                                       : 2
  41. Format                                   : E-AC-3
  42. Format/Info                              : Enhanced AC-3
  43. Commercial name                          : Dolby Digital Plus
  44. Codec ID                                 : A_EAC3
  45. Duration                                 : 1 h 10 min
  46. Bit rate mode                            : Constant
  47. Bit rate                                 : 640 kb/s
  48. Channel(s)                               : 6 channels
  49. Channel layout                           : L R C LFE Ls Rs
  50. Sampling rate                            : 48.0 kHz
  51. Frame rate                               : 31.250 FPS (1536 SPF)
  52. Compression mode                         : Lossy
  53. Stream size                              : 324 MiB (12%)
  54. Title                                    : English
  55. Language                                 : English
  56. Service kind                             : Complete Main
  57. Default                                  : No
  58. Forced                                   : No
  59. Text #1
  60. ID                                       : 3
  61. Format                                   : UTF-8
  62. Codec ID                                 : S_TEXT/UTF8
  63. Codec ID/Info                            : UTF-8 Plain Text
  64. Duration                                 : 1 h 10 min
  65. Bit rate                                 : 95 b/s
  66. Count of elements                        : 1291
  67. Stream size                              : 49.3 KiB (0%)
  68. Title                                    : Simplified Chinese
  69. Language                                 : Chinese
  70. Default                                  : Yes
  71. Forced                                   : No
  72. Text #2
  73. ID                                       : 4
  74. Format                                   : UTF-8
  75. Codec ID                                 : S_TEXT/UTF8
  76. Codec ID/Info                            : UTF-8 Plain Text
  77. Duration                                 : 1 h 10 min
  78. Bit rate                                 : 116 b/s
  79. Count of elements                        : 1327
  80. Stream size                              : 60.3 KiB (0%)
  81. Title                                    : English [CC]
  82. Language                                 : English
  83. Default                                  : No
  84. Forced                                   : No
复制代码

















保举请利用qBittorrent,utorrent,transmission等标准BT软件下载!以获得最快速度。奉求保种!





回复

使用道具 举报

懒得打字嘛,点击右侧快捷回复 【右侧内容,后台自定义】
您需要登录后才可以回帖 登录 | 立即加入

本版积分规则

Archiver|小黑屋| 蓝光电影网 |网站地图

Copyright © 2021 Comsenz Inc. Powered by 蓝光电影网

蓝光电影网

本站内容由用户自主分享和转载自互联网,转载目的在于传递更多信息,并不代表本网赞同其观点和对其真实性负责。

如有侵权、违反国家法律政策行为,请联系我们,我们会第一时间及时清除和处理!

举报反馈邮箱:[email protected]

快速回复 返回顶部 返回列表